BitTorrentTracker PerecTracker.org
BitTorrentTracker PerecTracker.org
    
Регистрация  ·  Вход
 
 · 
Забыли пароль?

  • Стэнд-Ап Шоу / Stand Up UA. Выпуск 6 (2014.11.08) SATRip

    Ответить на тему
     
    Автор Сообщение

    rechyn

    Создавать темы 19-Ноя-2016 04:41

           

    [Цитировать]

    - Стэнд-Ап Шоу / Stand Up UA. Выпуск 6 (2014.11.08) SATRip -Режиссер / Телекомпания: Новый канал
    Русское название: Стэнд-Ап Шоу
    Оригинальное название: Stand Up UA
    Год выпуска: 2014
    Жанр: Юмор
    Выпущено: Украина
    Описание:
    Андрей Шабанов ищет самого смешного стендап-комика Украины!
    45 минут смеха – так тремя словами можно описать новый юмористический проект Нового канала «Стэнд-Ап Шоу». Продакшн Андрея Шабанова готовит десять выпусков первого в Украине проекта в жанре стендап. Сам Андрей выступает в качестве продюсера и ведущего.
    – Мы определим самого смешного комика страны в разговорном жанре. Особенность стендапа в том, что комик делится СВОИМИ переживаниями и наблюдениями с залом. И если его проблемы знакомы залу, это вызывает смех. Но мой рассказ – это как попытка на пальцах показать, как поет Шаляпин. Лучше один раз увидеть, – говорит Шабанов.
    Замысел шоу полностью соответствует названию – участники выходят на сцену и шутят. Победитель получит всеукраинскую славу и… 50 тысяч гривен в придачу. Лучшего будут определять зрители в зале, смехолайзер и Человек-Конь.
    Смехолайзер, по словам создателей проекта, – уникальный аппарат. Разработанный в секретной лаборатории, он будет определять уровень смеха в зале. Чем громче хохот, тем выше показания устройства и шансы на победу.
    Человек с головой коня управляет смехолайзером. Он, как ни странно, с секретными исследованиями не связан. По рассказам все тех же создателей, просто так часто ржал на выступлениях «Стэнд-Ап Шоу», что, в конце концов, его голова превратилась в лошадиную.
    Продолжительность: 00:43:22
    Видеокодек: Xvid
    Битрейт видео: ~1414 Кбит/сек
    Размер кадра: 720 x 416
    Качество видео: SATRip
    Аудиокодек: MP3, 2ch.
    Битрейт аудио: 192 Кбит/сек

    MediaInfo:

    Формат : AVI
    Формат/Информация : Audio Video Interleave
    Размер файла : 501 Мбайт
    Продолжительность : 43 м.
    Общий поток : 1615 Кбит/сек
    Программа кодирования : VirtualDubMod 1.5.10.3 | www.virtualdub-fr.org || (build 2550/release)
    Библиотека кодирования : VirtualDubMod build 2550/release
    Видео
    Идентификатор : 0
    Формат : MPEG-4 Visual
    Профиль формата : Advanced Simple@L5
    Параметр BVOP формата : 1
    Параметр QPel формата : Нет
    Параметр GMC формата : Без точки перехода
    Параметр матрицы формата : Default (MPEG)
    Идентификатор кодека : XVID
    Идентификатор кодека/Подсказка : XviD
    Продолжительность : 43 м.
    Битрейт : 1413 Кбит/сек
    Ширина : 720 пикселей
    Высота : 416 пикселей
    Соотношение сторон : 1,731
    Частота кадров : 25,000 кадров/сек
    Цветовое пространство : YUV
    Субдискретизация насыщенности : 4:2:0
    Битовая глубина : 8 бит
    Тип развёртки : Прогрессивная
    Метод сжатия : С потерями
    Бит/(Пиксели*Кадры) : 0.189
    Размер потока : 438 Мбайт (88%)
    Библиотека кодирования : XviD 1.2.1 (UTC 2008-12-04)
    Аудио
    Идентификатор : 1
    Формат : MPEG Audio
    Версия формата : Version 1
    Профиль формата : Layer 3
    Режим : Joint stereo
    Расширение режима : MS Stereo
    Идентификатор кодека : 55
    Идентификатор кодека/Подсказка : MP3
    Продолжительность : 43 м.
    Вид битрейта : Постоянный
    Битрейт : 192 Кбит/сек
    Каналы : 2 канала
    Частота : 48,0 КГц
    Метод сжатия : С потерями
    Размер потока : 59,6 Мбайт (12%)
    Выравнивание : Соединение по промежуткам
    Продолжительность промежутка : 40 мс. (1,00 видеокадр)
    Время предзагрузки промежутка : 504 мс.
    Библиотека кодирования : LAME3.99r
    Настройки программы : -m j -V 4 -q 2 -lowpass 18.6 -b 192
    Скриншоты:Время раздачи: 24/7. До первых 5 скачавших.
    Rip by simkanetua
    Stand Up UA на NoNaMe Club
    Скачать .torrent

    Скачать торрент-файл бесплатно и на максимальной скорости!

    Как скачивать? · Что такое торрент? · Рейтинг и ограничения

    !ВНИМАНИЕ!
    Сайт не распространяет и не хранит электронные версии произведений, а занимается лишь лишь предоставлением доступа к создаваемому пользователями каталогу ссылок на торрент-файлы, которые содержат только списки хеш-сумм, убедительная просьба с жалобами обращаться напрямую к пользователю. Файлы для обмена на трекере предоставлены пользователями сайта, и администрация не несёт ответственности за их содержание. Просьба не заливать файлы, защищенные авторскими правами, а также файлы нелегального содержания!


    _________________
    [Профиль] [ЛС]
    Показать сообщения:    
    Ответить на тему

    Текущее время: Сегодня, в 20:05

    Часовой пояс: GMT + 2



    Вы не можете начинать темы
    Вы не можете отвечать на сообщения
    Вы не можете редактировать свои сообщения
    Вы не можете удалять свои сообщения
    Вы не можете голосовать в опросах
    Вы не можете прикреплять файлы к сообщениям
    Вы не можете скачивать файлы