BitTorrentTracker PerecTracker.org
BitTorrentTracker PerecTracker.org
    
Регистрация  ·  Вход
 
 · 
Забыли пароль?

  • И был вечер, и было утро / E fu sera e fu mattina / And There Was Evening and There Was Morning (Эмануэле Карузо / Emanuele Caruso) [2014, Италия, драма, DVB-AVC] MVO (Kino Polska)

    Ответить на тему
     
    Автор Сообщение

    Light

    Создавать темы 05-Июл-2015 21:53

           

    [Цитировать]

    И был вечер, и было утро
    E fu sera e fu mattina-Страна: Италия
    Жанр: драма
    Год выпуска: 2014
    Продолжительность: 01:49:02Перевод: Профессиональный (многоголосый закадровый) по заказу Kino Polska на производственно-технической базе Студии "Акцент"
    Cубтитры: нет
    Режиссер: Эмануэле Карузо / Emanuele Caruso
    В ролях: Альбино Марино / Albino Marino (Francesco), Лоренцо Педротти / Lorenzo Pedrotti (Gianni), Франческа Ризоли / Francesca Risoli (Luisa), Сара Франческа Спелта / Sara Francesca Spelta (Anna), Симоне Риччиони / Simone Riccioni (Marse)
    Описание: В название фильма вынесена фраза из Ветхого завета, рассказывающая о третьем дне творения.
    В Авиле, деревушке на вершине зеленого холма с населением 2000 жителей, готовятся отметить ежегодный праздник в честь Святой Евразии, покровительницы плодородия. Однако взгляды людей прикованы к единственному телевизору в баре, и через некоторое время начинается паника…
    Доп. информация: Filmbox Arthouse IPTV
    Награды: приз зрительских симпатий за лучший независимый фильм FICE - Federazione Italiana Cinema d'Essai 2014; номинация на премию "Золотая пирамида" за лучший фильм Cairo International Film Festival 2014.

    Качество видео: DVB-AVC
    Формат видео: MKV
    Видео: AVC (H.264), 720x576@1024x576 (16:9), 25 fps, ~617 kbps avg, 0.062 bit/pixel
    Аудио: MPEG Audio 2, 2 ch, 48 kHz, ~128.00 kbps avg

    MediaInfo

    ОбщееУникальный идентификатор : 196088969440049596904580688404872600448 (0x93855C9EFB382653BD04019F483E9B80)Полное имя : F:\My Torrents 3\[apreder]E_fu_sera_e_fu_mattina(2014)DVB.mkvФормат : MatroskaВерсия формата : Version 2Размер файла : 593 МбайтПродолжительность : 1 ч. 49 м.Общий поток : 760 Кбит/секДата кодирования : UTC 2015-07-04 18:33:43Программа кодирования : mkvmerge v8.1.0 ('Psychedelic Postcard') 64bitБиблиотека кодирования : libebml v1.3.1 + libmatroska v1.4.2Attachements : cover.jpg / cover_small.jpg
    ВидеоИдентификатор : 2Формат : AVCФормат/Информация : Advanced Video CodecПрофиль формата : Main@L3Параметр CABAC формата : ДаПараметр ReFrames формата : 3 кадраИдентификатор кодека : V_MPEG4/ISO/AVCПродолжительность : 1 ч. 49 м.Битрейт : 617 Кбит/секШирина : 720 пикселейВысота : 576 пикселейСоотношение сторон : 16:9Соотношение сторон в оригинале : 16:9Режим частоты кадров : ПостоянныйЧастота кадров : 24,174 кадра/секЧастота кадров в оригинале : 25,000 кадров/секСтандарт вещания : ComponentЦветовое пространство : YUVСубдискретизация насыщенности : 4:2:0Битовая глубина : 8 битТип развёртки : ЧересстрочнаяПорядок развёртки : Верхнее поле первоеБит/(Пиксели*Кадры) : 0.062Размер потока : 481 Мбайт (81%)Default : ДаForced : Нетcolour_range : LimitedОсновные цвета : BT.601 PALХарактеристики трансфера : BT.470 System B, BT.470 System GКоэффициенты матрицы : BT.601
    АудиоИдентификатор : 1Формат : MPEG AudioВерсия формата : Version 1Профиль формата : Layer 2Идентификатор кодека : A_MPEG/L2Идентификатор кодека/Подсказка : MP2Продолжительность : 1 ч. 49 м.Вид битрейта : ПостоянныйБитрейт : 128 Кбит/секКаналы : 2 каналаЧастота : 48,0 КГцМетод сжатия : С потерямиЗадержка видео : -22 мс.Размер потока : 99,8 Мбайт (17%)Язык : RussianDefault : ДаForced : Нет

    Скриншот c названием фильма

    Скриншоты

    Резервные скриншоты


    -[2'426]
    Скачать .torrent

    Скачать торрент-файл бесплатно и на максимальной скорости!

    Как скачивать? · Что такое торрент? · Рейтинг и ограничения

    !ВНИМАНИЕ!
    Сайт не распространяет и не хранит электронные версии произведений, а занимается лишь лишь предоставлением доступа к создаваемому пользователями каталогу ссылок на торрент-файлы, которые содержат только списки хеш-сумм, убедительная просьба с жалобами обращаться напрямую к пользователю. Файлы для обмена на трекере предоставлены пользователями сайта, и администрация не несёт ответственности за их содержание. Просьба не заливать файлы, защищенные авторскими правами, а также файлы нелегального содержания!


    _________________
    [Профиль] [ЛС]
    Показать сообщения:    
    Ответить на тему

    Текущее время: Сегодня, в 12:43

    Часовой пояс: GMT + 2



    Вы не можете начинать темы
    Вы не можете отвечать на сообщения
    Вы не можете редактировать свои сообщения
    Вы не можете удалять свои сообщения
    Вы не можете голосовать в опросах
    Вы не можете прикреплять файлы к сообщениям
    Вы не можете скачивать файлы