BitTorrentTracker PerecTracker.org
BitTorrentTracker PerecTracker.org
    
Регистрация  ·  Вход
 
 · 
Забыли пароль?

  • Уже который день. Серия №4 (2013) SATRip

    Ответить на тему
     
    Автор Сообщение

    rechyn

    Создавать темы 19-Ноя-2016 04:40

           

    [Цитировать]

    - Уже который день. Серия №4 (2013) SATRip -Режиссер / Телекомпания: Новый канал
    Русское название: Уже который день
    Год выпуска: 2013
    Жанр: Скетч, юмор
    Описание:
    Быстро в нашей стране только кошки родятся, футбольные клубы из лиги чемпионов вылетают и олигархи на моделях женятся. А бесконечно долго в нашей стране можно ждать повышения благосостояния населения, обещать себе бросить курить и перестать есть после шести. Между такими «быстро» и «бесконечно долго» как раз и застряли наши герои. И вот уже который день терпят неудачи во всех своих проявлениях и начинаниях. Казалось бы, цель ясна, и справиться с задачей - раз плюнуть. Да! Но только не нашим героям. Все банально просто: они - неудачники и выбирают изначально неправильный, дурацкий путь к своей цели. Но цель по-прежнему далека от них. Что же остается делать в такой ситуации? Не отчаиваться, верить в себя и, конечно же, продолжать попытки.
    О создателях проекта:
    Режиссер-постановщик шоу - КВНщик с 20-летним стажем, актер и режиссер Ашот Кещян, который зарекомендовал себя искрометным, но в то же время тонким и аккуратным юмором в лирической комедии «Мамы». Также он известен своей легкой и веселой лентой «Няньки». Список исполнителей главных ролей возглавляют такие звездные имена, как фееричный камедиклабщик Андрей Бурым и боец комедийного образа, заслуженный артист Украины Назар Заднепровский. Производство осуществляется съемочной группой компании «Актив Вижн», создателя нашумевшего телепроекта «Містичні історії». Возглавляет съемочную команду и руководит съемочным процессом «человек за кадром» - оператор-постановщик Дмитрий Плюта.
    Режиссер: Ашот Кещян
    Продолжительность: ~ 00:26:12
    Видеокодек: XVID
    Битрейт видео: ~1670 kb/s
    Размер кадра: 704 x 400
    Качество видео: SATRip
    Аудиокодек: MP3, 2ch.
    Битрейт аудио: 192 kb/s

    MediaInfo

    Формат : AVI
    Формат/Информация : Audio Video Interleave
    Размер файла : 351 Мбайт
    Продолжительность : 26 м.
    Общий поток : 1872 Кбит/сек
    Программа кодирования : VirtualDubMod 1.5.10.3 | www.virtualdub-fr.org || (build 2550/release)
    Библиотека кодирования : VirtualDubMod build 2550/release
    Видео
    Идентификатор : 0
    Формат : MPEG-4 Visual
    Профиль формата : Advanced Simple@L5
    Параметр BVOP формата : 1
    Параметр QPel формата : Нет
    Параметр GMC формата : Без точки перехода
    Параметр матрицы формата : Default (H.263)
    Идентификатор кодека : XVID
    Идентификатор кодека/Подсказка : XviD
    Продолжительность : 26 м.
    Битрейт : 1670 Кбит/сек
    Ширина : 704 пикселя
    Высота : 400 пикселей
    Соотношение сторон : 16:9
    Частота кадров : 25,000 кадров/сек
    Цветовое пространство : YUV
    Субдискретизация насыщенности : 4:2:0
    Битовая глубина : 8 бит
    Тип развёртки : Прогрессивная
    Метод сжатия : С потерями
    Бит/(Пиксели*Кадры) : 0.237
    Размер потока : 313 Мбайт (89%)
    Библиотека кодирования : XviD 1.2.1 (UTC 2008-12-04)
    Аудио
    Идентификатор : 1
    Формат : MPEG Audio
    Версия формата : Version 1
    Профиль формата : Layer 3
    Режим : Joint stereo
    Расширение режима : MS Stereo
    Идентификатор кодека : 55
    Идентификатор кодека/Подсказка : MP3
    Продолжительность : 26 м.
    Вид битрейта : Постоянный
    Битрейт : 192 Кбит/сек
    Каналы : 2 канала
    Частота : 48,0 КГц
    Метод сжатия : С потерями
    Размер потока : 36,0 Мбайт (10%)
    Выравнивание : Соединение по промежуткам
    Продолжительность промежутка : 40 мс. (1,00 видеокадр)
    Время предзагрузки промежутка : 504 мс.
    Библиотека кодирования : LAME3.99r
    Настройки программы : -m j -V 4 -q 2 -lowpass 18.6 -b 192
    Скриншоты:Время раздачи: 24/7. До первых 5 скачавших.
    Rip by simkanetua
    Уже который день на NoNaMe Club
    Скачать .torrent

    Скачать торрент-файл бесплатно и на максимальной скорости!

    Как скачивать? · Что такое торрент? · Рейтинг и ограничения

    !ВНИМАНИЕ!
    Сайт не распространяет и не хранит электронные версии произведений, а занимается лишь лишь предоставлением доступа к создаваемому пользователями каталогу ссылок на торрент-файлы, которые содержат только списки хеш-сумм, убедительная просьба с жалобами обращаться напрямую к пользователю. Файлы для обмена на трекере предоставлены пользователями сайта, и администрация не несёт ответственности за их содержание. Просьба не заливать файлы, защищенные авторскими правами, а также файлы нелегального содержания!


    _________________
    [Профиль] [ЛС]
    Показать сообщения:    
    Ответить на тему

    Текущее время: Сегодня, в 14:28

    Часовой пояс: GMT + 2



    Вы не можете начинать темы
    Вы не можете отвечать на сообщения
    Вы не можете редактировать свои сообщения
    Вы не можете удалять свои сообщения
    Вы не можете голосовать в опросах
    Вы не можете прикреплять файлы к сообщениям
    Вы не можете скачивать файлы