BitTorrentTracker PerecTracker.org
BitTorrentTracker PerecTracker.org
    
Регистрация  ·  Вход
 
 · 
Забыли пароль?

  • Чудак из пятого «Б» (1972) [H.264] DVDRip

    Ответить на тему
     
    Автор Сообщение

    Light

    Создавать темы 19-Ноя-2016 04:40

           

    [Цитировать]

    -Чудак из пятого «Б» (1972) DVDRip-Русское название: Чудак из пятого «Б»
    Год выпуска: 1972
    Жанр: Комедия, Семейный
    Описание фильма:
    Пятиклассника Борю, непоседу и выдумщика, назначили вожатым в первый класс. Не восприняв это вначале серьезно, мальчик постепенно проникся интересом к новым и неожиданным для него обязанностям.
    Режиссер: Илья Фрэз
    Актеры: Андрей Войновский, Роза Агишева, Татьяна Пельтцер, Нина Корниенко, Наталья Беспалова, Николай Мерзликин, Елизавета Ауэрбах, Евгений Весник, Юлия Корнева, Дмитрий Сосновский
    Продолжительность: 01:24:12

    Видеокодек: MPEG-4 AVC/H.264
    Битрейт видео: ~1952 Кбит/сек
    Размер кадра: 692 х 572
    Качество видео: DVDRip
    Аудиокодек: AC3 2.0
    Битрейт аудио: 448 Кбит/сек

    MediaInfo

    Общее
    Уникальный идентификатор : 198495997406643425058678317368822975843 (0x9554F04326B7804996FB79B4ACF3CD63)
    Полное имя : G:\_Reliz\Чудак из пятого «Б».1972.mkv
    Формат : Matroska
    Версия формата : Version 2
    Размер файла : 1,41 Гбайт
    Продолжительность : 1 ч. 24 м.
    Общий поток : 2402 Кбит/сек
    Дата кодирования : UTC 2013-01-31 13:40:30
    Программа кодирования : mkvmerge v5.8.0 ('No Sleep / Pillow') built on Sep 2 2012 15:37:04
    Библиотека кодирования : libebml v1.2.3 + libmatroska v1.3.0
    Видео
    Идентификатор : 1
    Формат : AVC
    Формат/Информация : Advanced Video Codec
    Профиль формата : [url=mailto:High@L4.1]High@L4.1[/url]
    Параметр CABAC формата : Да
    Параметр ReFrames формата : 6 кадров
    Идентификатор кодека : V_MPEG4/ISO/AVC
    Продолжительность : 1 ч. 24 м.
    Битрейт : 1952 Кбит/сек
    Ширина : 698 пикселей
    Высота : 572 пикселя
    Соотношение сторон : 4:3
    Режим частоты кадров : Постоянный
    Частота кадров : 25,000 кадров/сек
    Цветовое пространство : YUV
    Субдискретизация насыщенности : 4:2:0
    Битовая глубина : 8 бит
    Тип развёртки : Прогрессивная
    Бит/(Пиксели*Кадры) : 0.196
    Размер потока : 1,12 Гбайт (79%)
    Библиотека кодирования : x264 core 129 r2230 1cffe9f
    Настройки программы : cabac=1 / ref=6 / deblock=1:-1:-1 / analyse=0x3:0x113 / me=umh / subme=10 / psy=1 / psy_rd=1.00:0.15 / mixed_ref=1 / me_range=32 / chroma_me=1 / trellis=2 / 8x8dct=1 / cqm=0 / deadzone=21,11 / fast_pskip=1 / chroma_qp_offset=-3 / threads=12 / lookahead_threads=2 / sliced_threads=0 / nr=0 / decimate=1 / interlaced=0 / bluray_compat=0 / constrained_intra=0 / bframes=10 / b_pyramid=2 / b_adapt=2 / b_bias=0 / direct=1 / weightb=1 / open_gop=0 / weightp=2 / keyint=250 / keyint_min=25 / scenecut=40 / intra_refresh=0 / rc_lookahead=40 / rc=2pass / mbtree=1 / bitrate=1952 / ratetol=1.0 / qcomp=0.60 / qpmin=10 / qpmax=51 / qpstep=4 / cplxblur=20.0 / qblur=0.5 / ip_ratio=1.40 / aq=1:1.00
    Default : Да
    Forced : Нет
    Аудио
    Идентификатор : 2
    Формат : AC-3
    Формат/Информация : Audio Coding 3
    Расширение режима : CM (complete main)
    Параметр Endianness формата : Big
    Идентификатор кодека : A_AC3
    Продолжительность : 1 ч. 24 м.
    Вид битрейта : Постоянный
    Битрейт : 448 Кбит/сек
    Каналы : 2 канала
    Расположение каналов : Front: L R
    Частота : 48,0 КГц
    Битовая глубина : 16 бит
    Метод сжатия : С потерями
    Размер потока : 270 Мбайт (19%)
    Default : Да
    Forced : Нет
    Скриншоты:
    Скачать .torrent

    Скачать торрент-файл бесплатно и на максимальной скорости!

    Как скачивать? · Что такое торрент? · Рейтинг и ограничения

    !ВНИМАНИЕ!
    Сайт не распространяет и не хранит электронные версии произведений, а занимается лишь лишь предоставлением доступа к создаваемому пользователями каталогу ссылок на торрент-файлы, которые содержат только списки хеш-сумм, убедительная просьба с жалобами обращаться напрямую к пользователю. Файлы для обмена на трекере предоставлены пользователями сайта, и администрация не несёт ответственности за их содержание. Просьба не заливать файлы, защищенные авторскими правами, а также файлы нелегального содержания!


    _________________
    [Профиль] [ЛС]
    Показать сообщения:    
    Ответить на тему

    Текущее время: Сегодня, в 00:24

    Часовой пояс: GMT + 2



    Вы не можете начинать темы
    Вы не можете отвечать на сообщения
    Вы не можете редактировать свои сообщения
    Вы не можете удалять свои сообщения
    Вы не можете голосовать в опросах
    Вы не можете прикреплять файлы к сообщениям
    Вы не можете скачивать файлы