BitTorrentTracker PerecTracker.org
BitTorrentTracker PerecTracker.org
    
Регистрация  ·  Вход
 
 · 
Забыли пароль?

  • Шантажист (1987) SATRip

    Ответить на тему
     
    Автор Сообщение

    Light

    Создавать темы 19-Ноя-2016 04:40

           

    [Цитировать]

    -Шантажист (1987) SATRip-Год выпуска: 1987
    Жанр: Семейный, Драма
    Описание:
    Главные герои фильма - девятиклассники, друзья Михаил Рубцов и Геннадий Куликов.
    Генка, не имея водительских прав, вздумал покатать свою одноклассницу Аню на машине ее отца и разбил её. На ремонт нужны немалые деньги, и Генка крадет кинокамеру из школьной фотостудии, чтобы ее продать. Это событие обнаруживает непримиримые противоречия между друзьями....
    Режиссер: Валерий Курыкин
    Актеры: Михаил Ефремов, Андрей Тихомирнов, Александр Ширвиндт, Марина Старых, Нина Гомиашвили, Леонид Куравлёв, Валентина Титова, Валерий Афанасьев, Николай Карнаухов, Сергей Гармаш, Георгий Крамеров
    Продолжительность: 01:25:58
    Качество видео: SATRip

    Видеокодек: XviD
    Битрейт видео: ~1399 Кбит/сек
    Размер кадра: 608x400
    Аудиокодек: MP3, 2 ch, 128 Кбит/сек

    MediaInfo:

    Общее
    Полное имя : E:\Интересно\!!!Конкурс детский\2Этап\!\Шантажист\Шантажист (1987) SATRip.avi
    Формат : AVI
    Формат/Информация : Audio Video Interleave
    Размер файла : 945 Мбайт
    Продолжительность : 1 ч. 25 м.
    Общий поток : 1537 Кбит/сек
    Программа кодирования : VirtualDubMod 1.5.10.2 (build 2540/release)
    Библиотека кодирования : VirtualDubMod build 2540/release
    Правообладатель : SATrip by moryachok
    Видео
    Идентификатор : 0
    Формат : MPEG-4 Visual
    Профиль формата : Advanced Simple@L5
    Параметр BVOP формата : 5
    Параметр QPel формата : Нет
    Параметр GMC формата : Без точки перехода
    Параметр матрицы формата : Default (MPEG)
    Идентификатор кодека : XVID
    Идентификатор кодека/Подсказка : XviD
    Продолжительность : 1 ч. 25 м.
    Битрейт : 1399 Кбит/сек
    Ширина : 608 пикселей
    Высота : 400 пикселей
    Соотношение сторон : 1,222
    Соотношение сторон в оригинале : 3:2
    Частота кадров : 25,000 кадров/сек
    Цветовое пространство : YUV
    Субдискретизация насыщенности : 4:2:0
    Битовая глубина : 8 бит
    Тип развёртки : Прогрессивная
    Метод сжатия : С потерями
    Бит/(Пиксели*Кадры) : 0.230
    Размер потока : 860 Мбайт (91%)
    Библиотека кодирования : XviD 1.1.2 (UTC 2006-11-01)
    Аудио
    Идентификатор : 1
    Формат : MPEG Audio
    Версия формата : Version 1
    Профиль формата : Layer 3
    Режим : Joint stereo
    Расширение режима : MS Stereo
    Идентификатор кодека : 55
    Идентификатор кодека/Подсказка : MP3
    Продолжительность : 1 ч. 25 м.
    Вид битрейта : Постоянный
    Битрейт : 128 Кбит/сек
    Каналы : 2 канала
    Частота : 48,0 КГц
    Метод сжатия : С потерями
    Размер потока : 78,7 Мбайт (8%)
    Выравнивание : Разделение по промежуткам
    Продолжительность промежутка : 40 мс. (1,00 видеокадр)
    Время предзагрузки промежутка : 500 мс.
    Скриншоты:

    Доп. скриншоты:

    Время раздачи: С 18:00 до 23:00
    Скачать .torrent

    Скачать торрент-файл бесплатно и на максимальной скорости!

    Как скачивать? · Что такое торрент? · Рейтинг и ограничения

    !ВНИМАНИЕ!
    Сайт не распространяет и не хранит электронные версии произведений, а занимается лишь лишь предоставлением доступа к создаваемому пользователями каталогу ссылок на торрент-файлы, которые содержат только списки хеш-сумм, убедительная просьба с жалобами обращаться напрямую к пользователю. Файлы для обмена на трекере предоставлены пользователями сайта, и администрация не несёт ответственности за их содержание. Просьба не заливать файлы, защищенные авторскими правами, а также файлы нелегального содержания!


    _________________
    [Профиль] [ЛС]
    Показать сообщения:    
    Ответить на тему

    Текущее время: Сегодня, в 18:26

    Часовой пояс: GMT + 2



    Вы не можете начинать темы
    Вы не можете отвечать на сообщения
    Вы не можете редактировать свои сообщения
    Вы не можете удалять свои сообщения
    Вы не можете голосовать в опросах
    Вы не можете прикреплять файлы к сообщениям
    Вы не можете скачивать файлы