BitTorrentTracker PerecTracker.org
BitTorrentTracker PerecTracker.org
    
Регистрация  ·  Вход
 
 · 
Забыли пароль?

  • Шапка Мономаха (1982) DVBRip

    Ответить на тему
     
    Автор Сообщение

    Light

    Создавать темы 19-Ноя-2016 04:40

           

    [Цитировать]

    -Шапка Мономаха (1982) DVBRip-Год выпуска: 1982
    Жанр: Семейный, детский
    Описание фильма: Неприметный восьмиклассник в силу обстоятельств неожиданно провозглашается в школе гением. Сразу все, и школьники, и преподаватели, стали относиться к нему иначе. Все поняли, что он настоящая личность, добрый и чуткий человек.
    Режиссер: Искандер Хамраев
    Актеры: Коля Феофанов, Даша Мальчевская, Габриэль Воробьев, Людмила Чурсина, Михаил Светин
    Продолжительность: 01:03:15
    Качество видео: DVBRip

    Видеокодек: MPEG-2
    Битрейт видео: ~2327 Кбит/сек
    Размер кадра: 720x576
    Аудиокодек: MP2, 2 ch, 192 Кбит/сек

    MediaInfo:

    Общее
    Полное имя : E:\Интересно\!!!Конкурс детский\2Этап\!\Шапка Мономаха\dvb\Шапка Мономаха (1982) DVBRip.mpg
    Формат : MPEG-PS
    Размер файла : 1,14 Гбайт
    Продолжительность : 1 ч. 3 м.
    Режим общего битрейта : Переменный
    Общий поток : 2570 Кбит/сек
    Видео
    Идентификатор : 224 (0xE0)
    Формат : MPEG Video
    Версия формата : Version 2
    Профиль формата : Main@Main
    Параметр BVOP формата : Да
    Параметр матрицы формата : Выборочная
    Параметр GOP формата : M=3, N=12
    Продолжительность : 1 ч. 3 м.
    Вид битрейта : Переменный
    Битрейт : 2327 Кбит/сек
    Максимальный битрейт : 5000 Кбит/сек
    Ширина : 720 пикселей
    Высота : 576 пикселей
    Соотношение сторон : 4:3
    Частота кадров : 25,000 кадров/сек
    Стандарт вещания : PAL
    Цветовое пространство : YUV
    Субдискретизация насыщенности : 4:2:0
    Битовая глубина : 8 бит
    Тип развёртки : Чересстрочная
    Порядок развёртки : Верхнее поле первое
    Метод сжатия : С потерями
    Бит/(Пиксели*Кадры) : 0.224
    Временной код первого кадра : 00:00:00:00
    Оригинал временного кода : Group of pictures header
    Размер потока : 1,03 Гбайт (91%)
    Аудио
    Идентификатор : 192 (0xC0)
    Формат : MPEG Audio
    Версия формата : Version 1
    Профиль формата : Layer 2
    Продолжительность : 1 ч. 3 м.
    Вид битрейта : Постоянный
    Битрейт : 192 Кбит/сек
    Каналы : 2 канала
    Частота : 48,0 КГц
    Метод сжатия : С потерями
    Размер потока : 86,9 Мбайт (7%)
    Скриншоты:
    Скачать .torrent

    Скачать торрент-файл бесплатно и на максимальной скорости!

    Как скачивать? · Что такое торрент? · Рейтинг и ограничения

    !ВНИМАНИЕ!
    Сайт не распространяет и не хранит электронные версии произведений, а занимается лишь лишь предоставлением доступа к создаваемому пользователями каталогу ссылок на торрент-файлы, которые содержат только списки хеш-сумм, убедительная просьба с жалобами обращаться напрямую к пользователю. Файлы для обмена на трекере предоставлены пользователями сайта, и администрация не несёт ответственности за их содержание. Просьба не заливать файлы, защищенные авторскими правами, а также файлы нелегального содержания!


    _________________
    [Профиль] [ЛС]
    Показать сообщения:    
    Ответить на тему

    Текущее время: Сегодня, в 14:30

    Часовой пояс: GMT + 2



    Вы не можете начинать темы
    Вы не можете отвечать на сообщения
    Вы не можете редактировать свои сообщения
    Вы не можете удалять свои сообщения
    Вы не можете голосовать в опросах
    Вы не можете прикреплять файлы к сообщениям
    Вы не можете скачивать файлы