BitTorrentTracker PerecTracker.org
BitTorrentTracker PerecTracker.org
    
Регистрация  ·  Вход
 
 · 
Забыли пароль?

  • Шкатулка из крепости / Шкатулка Исмаил Бека (1982) TVRip

    Ответить на тему
     
    Автор Сообщение

    Light

    Создавать темы 19-Ноя-2016 04:40

           

    [Цитировать]

    -Шкатулка из крепости / Шкатулка Исмаил Бека (1982) TVRip-Год выпуска: 1982
    Жанр: приключения
    Описание фильма: Два неразлучных школьных друга Мансур и Энвер мечтали найти клад. Однажды им крупно повезло - в полуразрушенной крепости они, наконец, обнаружили шкатулку с драгоценностями. Но завладели шкатулкой наблюдавшие за ребятами преступники...
    Режиссер: Гюльбаниз Азимзаде
    Актеры: Кямран Шахмарданов, Ульви Сафаров, Самира Караева, Микаил Керимов, Ибрагим Алиев, Гасан (Гасанага) Турабов, Рахиб Сафаралиев, Агаали Алиев, Фахраддин Манафов, Тофик Таги-Заде, Рухсара Агаева, Сона Микаилова, Шукюфа Юсупова
    Продолжительность: 01:11:45
    Качество видео: TVRip

    Видеокодек: xvid
    Битрейт видео: ~378 Кбит/сек
    Размер кадра: 640x288
    Аудиокодек: MP3, 2 ch, 160 Кбит/сек
    Сэмпл

    MediaInfo:

    Общее
    Полное имя : E:\Интересно\!!!Конкурс детский\2Этап\!\Шкатулка из крепости\Шкатулка из крепости (1982) TVRip.avi
    Формат : AVI
    Формат/Информация : Audio Video Interleave
    Размер файла : 281 Мбайт
    Продолжительность : 1 ч. 11 м.
    Общий поток : 548 Кбит/сек
    Программа кодирования : VirtualDubMod 1.5.10.2 (build 2540/release)
    Библиотека кодирования : VirtualDubMod build 2540/release
    Видео
    Идентификатор : 0
    Формат : xvid
    Идентификатор кодека : xvid
    Продолжительность : 1 ч. 11 м.
    Битрейт : 378 Кбит/сек
    Ширина : 640 пикселей
    Высота : 288 пикселей
    Соотношение сторон : 2,25:1
    Частота кадров : 25,000 кадров/сек
    Бит/(Пиксели*Кадры) : 0.082
    Размер потока : 194 Мбайт (69%)
    Аудио
    Идентификатор : 1
    Формат : MPEG Audio
    Версия формата : Version 1
    Профиль формата : Layer 3
    Идентификатор кодека : 55
    Идентификатор кодека/Подсказка : MP3
    Продолжительность : 1 ч. 11 м.
    Вид битрейта : Постоянный
    Битрейт : 160 Кбит/сек
    Каналы : 2 канала
    Частота : 44,1 КГц
    Метод сжатия : С потерями
    Размер потока : 82,1 Мбайт (29%)
    Выравнивание : Разделение по промежуткам
    Продолжительность промежутка : 40 мс. (1,00 видеокадр)
    Время предзагрузки промежутка : 500 мс.
    Скриншоты:Время раздачи: С 18:00 до 23:00
    Скачать .torrent

    Скачать торрент-файл бесплатно и на максимальной скорости!

    Как скачивать? · Что такое торрент? · Рейтинг и ограничения

    !ВНИМАНИЕ!
    Сайт не распространяет и не хранит электронные версии произведений, а занимается лишь лишь предоставлением доступа к создаваемому пользователями каталогу ссылок на торрент-файлы, которые содержат только списки хеш-сумм, убедительная просьба с жалобами обращаться напрямую к пользователю. Файлы для обмена на трекере предоставлены пользователями сайта, и администрация не несёт ответственности за их содержание. Просьба не заливать файлы, защищенные авторскими правами, а также файлы нелегального содержания!


    _________________
    [Профиль] [ЛС]
    Показать сообщения:    
    Ответить на тему

    Текущее время: Сегодня, в 20:05

    Часовой пояс: GMT + 2



    Вы не можете начинать темы
    Вы не можете отвечать на сообщения
    Вы не можете редактировать свои сообщения
    Вы не можете удалять свои сообщения
    Вы не можете голосовать в опросах
    Вы не можете прикреплять файлы к сообщениям
    Вы не можете скачивать файлы