BitTorrentTracker PerecTracker.org
BitTorrentTracker PerecTracker.org
    
Регистрация  ·  Вход
 
 · 
Забыли пароль?

  • Школьный спектакль (1972) SATRip

    Ответить на тему
     
    Автор Сообщение

    Light

    Создавать темы 19-Ноя-2016 04:40

           

    [Цитировать]

    -Школьный спектакль (1972) SATRip-Год выпуска:
    Жанр: драма, мелодрама, семейный
    Описание фильма: По одноименной повести В. Каверина.
    Все началось с того, что четверо юношей выбрали себе одну и туже даму сердца - одноклассницу Варю Самарину. Из-за своих переживаний ребята совсем перестали учиться. Но в этот момент им на помощь пришел учитель литературы Андрей Данилович, он предложил своим ученикам поставить спектакль. Благодаря этой постановке ребята смогли разобраться в своих взаимоотношениях.
    Режиссер: Н. Зубарева
    Актеры: Куликов Г., Щербаков П., Фурманюк Л., Дьяков Егор, Давыдов А., Молев С., Бугельский Ю., Калашников А.
    Продолжительность: 01:23:39
    Качество видео: SATRip

    Видеокодек: XviD
    Битрейт видео: ~1800 Кбит/сек
    Размер кадра: 688x512
    Аудиокодек: MP3, 2 ch, 128 Кбит/сек

    MediaInfo:

    Общее
    Полное имя : E:\Интересно\!!!Конкурс детский\2Этап\!\Школьный спектакль\Школьный спектакль (1972) SATRip.avi
    Формат : AVI
    Формат/Информация : Audio Video Interleave
    Размер файла : 1,13 Гбайт
    Продолжительность : 1 ч. 23 м.
    Общий поток : 1938 Кбит/сек
    Режиссёр : SATrip by Animat (fenixclub.com)
    Программа кодирования : VirtualDubMod 1.5.10.2 (build 2540/release)
    Библиотека кодирования : Boilsoft AVI tool build 1/release
    Видео
    Идентификатор : 0
    Формат : MPEG-4 Visual
    Профиль формата : Advanced Simple@L5
    Параметр BVOP формата : 2
    Параметр QPel формата : Нет
    Параметр GMC формата : Без точки перехода
    Параметр матрицы формата : Default (MPEG)
    Режим смешивания : Сжатый битовый поток
    Идентификатор кодека : XVID
    Идентификатор кодека/Подсказка : XviD
    Продолжительность : 1 ч. 23 м.
    Битрейт : 1800 Кбит/сек
    Ширина : 688 пикселей
    Высота : 512 пикселей
    Соотношение сторон : 4:3
    Частота кадров : 25,000 кадров/сек
    Цветовое пространство : YUV
    Субдискретизация насыщенности : 4:2:0
    Битовая глубина : 8 бит
    Тип развёртки : Прогрессивная
    Метод сжатия : С потерями
    Бит/(Пиксели*Кадры) : 0.204
    Размер потока : 1,05 Гбайт (93%)
    Библиотека кодирования : XviD 1.1.2 (UTC 2006-11-01)
    Аудио
    Идентификатор : 1
    Формат : MPEG Audio
    Версия формата : Version 1
    Профиль формата : Layer 3
    Режим : Joint stereo
    Расширение режима : MS Stereo
    Идентификатор кодека : 55
    Идентификатор кодека/Подсказка : MP3
    Продолжительность : 1 ч. 23 м.
    Вид битрейта : Постоянный
    Битрейт : 128 Кбит/сек
    Каналы : 2 канала
    Частота : 48,0 КГц
    Метод сжатия : С потерями
    Размер потока : 76,6 Мбайт (7%)
    Выравнивание : Соединение по промежуткам
    Продолжительность промежутка : 40 мс. (1,00 видеокадр)
    Время предзагрузки промежутка : 504 мс.
    Скриншоты:Время раздачи: С 16:00 до 21:00
    Скачать .torrent

    Скачать торрент-файл бесплатно и на максимальной скорости!

    Как скачивать? · Что такое торрент? · Рейтинг и ограничения

    !ВНИМАНИЕ!
    Сайт не распространяет и не хранит электронные версии произведений, а занимается лишь лишь предоставлением доступа к создаваемому пользователями каталогу ссылок на торрент-файлы, которые содержат только списки хеш-сумм, убедительная просьба с жалобами обращаться напрямую к пользователю. Файлы для обмена на трекере предоставлены пользователями сайта, и администрация не несёт ответственности за их содержание. Просьба не заливать файлы, защищенные авторскими правами, а также файлы нелегального содержания!


    _________________
    [Профиль] [ЛС]
    Показать сообщения:    
    Ответить на тему

    Текущее время: Сегодня, в 14:29

    Часовой пояс: GMT + 2



    Вы не можете начинать темы
    Вы не можете отвечать на сообщения
    Вы не можете редактировать свои сообщения
    Вы не можете удалять свои сообщения
    Вы не можете голосовать в опросах
    Вы не можете прикреплять файлы к сообщениям
    Вы не можете скачивать файлы