BitTorrentTracker PerecTracker.org
BitTorrentTracker PerecTracker.org
    
Регистрация  ·  Вход
 
 · 
Забыли пароль?

  • Шторм на суше (1975) TVRip

    Ответить на тему
     
    Автор Сообщение

    Light

    Создавать темы 19-Ноя-2016 04:40

           

    [Цитировать]

    -Шторм на суше (1975) TVRip-Русское название: Шторм на суше
    Год выпуска: 1975
    Жанр: Семейный, Приключения
    Описание фильма:
    По мотивам рассказов Бориса Житкова.
    Приморский городок России, 1913 год. Митька Хряпов вместе со слободскими ребятами мечтает о дальних странах и путешествиях. С завистью думая о гавани, где им пока не разрешают бывать, они целыми днями пропадают на берегу моря и Митька терпеливо обучает друзей нехитрым делам, без которых немыслимо большое плавание. Картину «Шторм на суше» Сергей Герасимов назвал лучшим фильмом для детей.
    Музыка Евгения Крылатова.
    Режиссер: Эдуард Бочаров
    Актеры: Александр Макарцев, Александр Силин, Георгий Юматов, Нина Меньшикова, Сергей Яковлев, Станислав Чекан, Григорий Лямпе, Владимир Балашов, Павел Винник, Юрий Чернов, Муза Крепкогорская, Евгений Марков, Таир Жалялов, Александра Кудрявцева, Таня Лапина
    Продолжительность: 01:16:21

    Видеокодек: DivX 5
    Качество видео: TVRip
    Видео: DivX, 1137 Кбит/с, 608x350
    Аудио: MP3, 2 ch, 128 Кбит/с

    MediaInfo

    E:\Kino\Shtorm.na.sushe.1975.DivX.TVRip.avi
    General
    Complete name : E:\Kino\Shtorm.na.sushe.1975.DivX.TVRip.avi
    Format : AVI
    Format/Info : Audio Video Interleave
    File size : 694 MiB
    Duration : 1h 16mn
    Overall bit rate : 1 271 Kbps
    Writing application : VirtualDubMod 1.5.10.2 (build 2540/release)
    Writing library : VirtualDub build 23486/release
    Video
    Format : MPEG-4 Visual
    Format settings, BVOP : Yes
    Format settings, QPel : No
    Format settings, GMC : No warppoints
    Format settings, Matrix : Default
    Codec ID : DX50
    Codec ID/Hint : DivX 5
    Duration : 1h 16mn
    Bit rate : 1 133 Kbps
    Width : 608 pixels
    Height : 350 pixels
    Display aspect ratio : 16/9
    Frame rate : 25.000 fps
    Resolution : 24 bits
    Colorimetry : 4:2:0
    Scan type : Progressive
    Bits/(Pixel*Frame) : 0.213
    Stream size : 619 MiB (89%)
    Writing library : DivX 6.5.1 (UTC 2007-03)
    Audio
    Format : MPEG Audio
    Format version : Version 1
    Format profile : Layer 3
    Codec ID : 55
    Codec ID/Hint : MP3
    Duration : 1h 16mn
    Bit rate mode : Constant
    Bit rate : 128 Kbps
    Channel(s) : 2 channels
    Sampling rate : 48.0 KHz
    Resolution : 16 bits
    Stream size : 69.9 MiB (10%)
    Alignment : Split accross interleaves
    Interleave, duration : 40 ms (1.00 video frame)
    Interleave, preload duration : 500 ms
    Скриншоты: Время раздачи: 24\7, до 5 скачавших
    Скачать .torrent

    Скачать торрент-файл бесплатно и на максимальной скорости!

    Как скачивать? · Что такое торрент? · Рейтинг и ограничения

    !ВНИМАНИЕ!
    Сайт не распространяет и не хранит электронные версии произведений, а занимается лишь лишь предоставлением доступа к создаваемому пользователями каталогу ссылок на торрент-файлы, которые содержат только списки хеш-сумм, убедительная просьба с жалобами обращаться напрямую к пользователю. Файлы для обмена на трекере предоставлены пользователями сайта, и администрация не несёт ответственности за их содержание. Просьба не заливать файлы, защищенные авторскими правами, а также файлы нелегального содержания!


    _________________
    [Профиль] [ЛС]
    Показать сообщения:    
    Ответить на тему

    Текущее время: Сегодня, в 18:41

    Часовой пояс: GMT + 2



    Вы не можете начинать темы
    Вы не можете отвечать на сообщения
    Вы не можете редактировать свои сообщения
    Вы не можете удалять свои сообщения
    Вы не можете голосовать в опросах
    Вы не можете прикреплять файлы к сообщениям
    Вы не можете скачивать файлы