BitTorrentTracker PerecTracker.org
BitTorrentTracker PerecTracker.org
    
Регистрация  ·  Вход
 
 · 
Забыли пароль?

  • Шуры-муры (1990) TVRip

    Ответить на тему
     
    Автор Сообщение

    Light

    Создавать темы 19-Ноя-2016 04:40

           

    [Цитировать]

    -Шуры-муры (1990) TVRip-Год выпуска: 1990
    Производство: СССР, Таллиннфильм
    Жанр: Короткометражный, Семейный
    Описание фильма:
    Короткометражный детский фильм по мотивам новеллы эстонского писателя Марта Кивастика.Трогательная история первого романтического и почти неосознанного чувства десятилетнего мальчика Януса к своей юной подруге-соседке Эйве. Свою влюблённость Янус выражает через интерес к собакам и мечтает приобрести у Эйвы красивого щенка. Однажды ребята вдвоём заглянули в гости к знакомым солдатам из соседней воинской части. После чего Янус познал и другое чувство, которое нередко испытывают влюблённые...
    Режиссер: Ааре Тилк
    Актеры: Имре Авасте, Хейди Кламп, Антс Андер, Ану Ламп, Пауль Поом
    Продолжительность: 00:29:37
    Качество видео: TVRip

    Видеокодек: Xvid
    Битрейт видео: ~1425 Кбит/сек
    Размер кадра: 720x528
    Аудиокодек: MP3, 2 ch
    Битрейт аудио: 128 Кбит/сек

    MediaInfo:

    Общее
    Полное имя : W:\Интересно\Шуры-муры 1990\Шуры-муры (1990) TVRip.avi
    Формат : AVI
    Формат/Информация : Audio Video Interleave
    Размер файла : 331 Мбайт
    Продолжительность : 29 м.
    Общий поток : 1563 Кбит/сек
    Программа кодирования : VirtualDubMod 1.5.10.2 (build 2540/release)
    Библиотека кодирования : VirtualDubMod build 2540/release
    Видео
    Идентификатор : 0
    Формат : MPEG-4 Visual
    Профиль формата : Advanced Simple@L5
    Параметр BVOP формата : 2
    Параметр QPel формата : Нет
    Параметр GMC формата : Без точки перехода
    Параметр матрицы формата : Default (MPEG)
    Идентификатор кодека : XVID
    Идентификатор кодека/Подсказка : XviD
    Продолжительность : 29 м.
    Битрейт : 1425 Кбит/сек
    Ширина : 720 пикселей
    Высота : 528 пикселей
    Соотношение сторон : 4:3
    Частота кадров : 25,000 кадров/сек
    Цветовое пространство : YUV
    Субдискретизация насыщенности : 4:2:0
    Битовая глубина : 8 бит
    Тип развёртки : Прогрессивная
    Метод сжатия : С потерями
    Бит/(Пиксели*Кадры) : 0.150
    Размер потока : 302 Мбайт (91%)
    Библиотека кодирования : XviD 64
    Аудио
    Идентификатор : 1
    Формат : MPEG Audio
    Версия формата : Version 1
    Профиль формата : Layer 3
    Режим : Joint stereo
    Расширение режима : MS Stereo
    Идентификатор кодека : 55
    Идентификатор кодека/Подсказка : MP3
    Продолжительность : 29 м.
    Вид битрейта : Постоянный
    Битрейт : 128 Кбит/сек
    Каналы : 2 канала
    Частота : 48,0 КГц
    Метод сжатия : С потерями
    Задержка видео : 11 мс.
    Размер потока : 27,1 Мбайт (8%)
    Выравнивание : Разделение по промежуткам
    Продолжительность промежутка : 40 мс. (1,00 видеокадр)
    Время предзагрузки промежутка : 500 мс.
    Скриншоты:
    Время раздачи: С 12:00 до 23:00
    Скачать .torrent

    Скачать торрент-файл бесплатно и на максимальной скорости!

    Как скачивать? · Что такое торрент? · Рейтинг и ограничения

    !ВНИМАНИЕ!
    Сайт не распространяет и не хранит электронные версии произведений, а занимается лишь лишь предоставлением доступа к создаваемому пользователями каталогу ссылок на торрент-файлы, которые содержат только списки хеш-сумм, убедительная просьба с жалобами обращаться напрямую к пользователю. Файлы для обмена на трекере предоставлены пользователями сайта, и администрация не несёт ответственности за их содержание. Просьба не заливать файлы, защищенные авторскими правами, а также файлы нелегального содержания!


    _________________
    [Профиль] [ЛС]
    Показать сообщения:    
    Ответить на тему

    Текущее время: Сегодня, в 20:06

    Часовой пояс: GMT + 2



    Вы не можете начинать темы
    Вы не можете отвечать на сообщения
    Вы не можете редактировать свои сообщения
    Вы не можете удалять свои сообщения
    Вы не можете голосовать в опросах
    Вы не можете прикреплять файлы к сообщениям
    Вы не можете скачивать файлы