BitTorrentTracker PerecTracker.org
BitTorrentTracker PerecTracker.org
    
Регистрация  ·  Вход
 
 · 
Забыли пароль?

  • Эта тревожная зима (1975) TVRip

    Ответить на тему
     
    Автор Сообщение

    Light

    Создавать темы 19-Ноя-2016 04:40

           

    [Цитировать]

    -Эта тревожная зима (1975) TVRip-Год выпуска: 1975
    Жанр: Семейный
    Описание фильма: Коля Филатов попадает с тяжелым заболеванием в санаторий, где ему предстоит неподвижно пролежать долгие месяцы. Коля берет себя в руки и не скисает. В палате много веселья и в дружном коллективе каждый день происходит непредсказуемое событие. Но мужества мальчику хватает не надолго. Почувствовав себя лучше, герой бежит из санатория...
    Режиссер: Игорь Николаев
    Актеры: Александр Копов, Эдуард Марцевич, Елена Костерева, Елена Безносикова, Александр Симакин, Сурен Чахоян, Вячеслав Надаховский, Елена Максимова, Юлия Цоглин, Наталья Воробьева, Ольга Казина, Екатерина Гражданская, Наталья Воробьева, Александр Карнаушкин
    Продолжительность: 01:12:24
    Качество видео: TVRip

    Видеокодек: DivX 5
    Битрейт видео: ~1204 Кбит/сек
    Размер кадра: 608x230
    Аудиокодек: MP3, 2 ch, 128 Кбит/сек

    MediaInfo:

    Общее
    Полное имя : E:\Интересно\!!!Конкурс детский\2Этап\!\Эта тревожная зима\Эта тревожная зима (1975) TVRip.avi
    Формат : AVI
    Формат/Информация : Audio Video Interleave
    Размер файла : 695 Мбайт
    Продолжительность : 1 ч. 12 м.
    Общий поток : 1341 Кбит/сек
    Программа кодирования : VirtualDubMod 1.5.10.2 (build 2540/release)
    Библиотека кодирования : VirtualDubMod build 2540/release
    Видео
    Идентификатор : 0
    Формат : MPEG-4 Visual
    Параметр BVOP формата : 1
    Параметр QPel формата : Нет
    Параметр GMC формата : Без точки перехода
    Параметр матрицы формата : Default (H.263)
    Режим смешивания : Сжатый битовый поток
    Идентификатор кодека : DX50
    Идентификатор кодека/Подсказка : DivX 5
    Продолжительность : 1 ч. 12 м.
    Битрейт : 1204 Кбит/сек
    Ширина : 608 пикселей
    Высота : 230 пикселей
    Соотношение сторон : 5:4
    Соотношение сторон в оригинале : 2,643
    Частота кадров : 25,000 кадров/сек
    Цветовое пространство : YUV
    Субдискретизация насыщенности : 4:2:0
    Битовая глубина : 8 бит
    Тип развёртки : Прогрессивная
    Метод сжатия : С потерями
    Бит/(Пиксели*Кадры) : 0.344
    Размер потока : 623 Мбайт (90%)
    Библиотека кодирования : DivX 6.0.0 (UTC 2005-06-15)
    Аудио
    Идентификатор : 1
    Формат : MPEG Audio
    Версия формата : Version 1
    Профиль формата : Layer 3
    Режим : Joint stereo
    Расширение режима : MS Stereo
    Идентификатор кодека : 55
    Идентификатор кодека/Подсказка : MP3
    Продолжительность : 1 ч. 12 м.
    Вид битрейта : Постоянный
    Битрейт : 128 Кбит/сек
    Каналы : 2 канала
    Частота : 48,0 КГц
    Метод сжатия : С потерями
    Размер потока : 66,3 Мбайт (10%)
    Выравнивание : Разделение по промежуткам
    Продолжительность промежутка : 40 мс. (1,00 видеокадр)
    Время предзагрузки промежутка : 500 мс.
    Скриншоты:Время раздачи: С 8:00 до 20:00
    Скачать .torrent

    Скачать торрент-файл бесплатно и на максимальной скорости!

    Как скачивать? · Что такое торрент? · Рейтинг и ограничения

    !ВНИМАНИЕ!
    Сайт не распространяет и не хранит электронные версии произведений, а занимается лишь лишь предоставлением доступа к создаваемому пользователями каталогу ссылок на торрент-файлы, которые содержат только списки хеш-сумм, убедительная просьба с жалобами обращаться напрямую к пользователю. Файлы для обмена на трекере предоставлены пользователями сайта, и администрация не несёт ответственности за их содержание. Просьба не заливать файлы, защищенные авторскими правами, а также файлы нелегального содержания!


    _________________
    [Профиль] [ЛС]
    Показать сообщения:    
    Ответить на тему

    Текущее время: Сегодня, в 14:30

    Часовой пояс: GMT + 2



    Вы не можете начинать темы
    Вы не можете отвечать на сообщения
    Вы не можете редактировать свои сообщения
    Вы не можете удалять свои сообщения
    Вы не можете голосовать в опросах
    Вы не можете прикреплять файлы к сообщениям
    Вы не можете скачивать файлы