BitTorrentTracker PerecTracker.org
BitTorrentTracker PerecTracker.org
    
Регистрация  ·  Вход
 
 · 
Забыли пароль?

  • Этот негодяй Сидоров (1983) TVRip

    Ответить на тему
     
    Автор Сообщение

    Light

    Создавать темы 19-Ноя-2016 04:40

           

    [Цитировать]

    -Этот негодяй Сидоров (1983) TVRip-Русское название: Этот негодяй Сидоров
    Год выпуска: 1983
    Жанр: Семейный, Короткометражный
    Описание фильма:
    Летний пионерский лагерь для детей разместился в городском этнографическом музее (юного зрителя ожидают комические погони, оживающие картины, говорящие звери и прочее веселое баловство). Прочитав характеристику на Алешу Сидорова все без исключения стали относиться к новичку как к лоботрясу и хулигану — согласно написанному. Однако талантливый парнишка, автор забавных буриме и карикатур, был последовательно и до конца снисходителен и вежлив. А когда в отряде появился настоящий хулиган Сидоров, Алеша решил взять над ним шефство — и стал ему настоящим другом.
    Режиссер: Валентин Горлов
    Актеры: Владислав Галкин, Таня Мартынова, Валерия Лиходей, Сергей Арцибашев, Мария Барабанова, Кирилл Головко-Серский, Мирча Соцки-Войническу, Марина Шиманская
    Продолжительность: 01:01:30
    Видеокодек: DivX 5
    Битрейт видео: ~2441 kbps
    Размер кадра: 704x528
    Качество видео: TVRip
    Аудиокодек: MP3
    Битрейт аудио: 96.00 kbps

    MediaInfo

    Общее
    Полное имя : Z:\MPEG4\_Detskoe\Этот_негодяй_Сидоров.avi
    Формат : AVI
    Формат/Информация : Audio Video Interleave
    Размер файла : 1,09 Гбайт
    Продолжительность : 1 ч. 1 м.
    Общий поток : 2547 Кбит/сек
    Название фильма : Etot negodjaj Sidorov
    Режиссёр : Belarus'fil'm
    Дата записи : 1983
    Программа кодирования : VirtualDubMod 1.5.10.2 (build 2542/release)
    Библиотека кодирования : VirtualDubMod build 2542/release
    Примечание : TVrip by Turtle / DivX Pro 5.2.1 @ 0,263 bpp / Lame MP3 44,1 kHz Mono @ 96 kbps
    Видео
    Идентификатор : 0
    Формат : MPEG-4 Visual
    Параметр BVOP формата : 1
    Параметр QPel формата : Нет
    Параметр GMC формата : Без точки перехода
    Параметр матрицы формата : Default (H.263)
    Режим смешивания : Сжатый битовый поток
    Идентификатор кодека : DX50
    Идентификатор кодека/Подсказка : DivX 5
    Продолжительность : 1 ч. 1 м.
    Битрейт : 2441 Кбит/сек
    Ширина : 704 пикселя
    Высота : 528 пикселей
    Соотношение сторон : 4:3
    Частота кадров : 25,000 кадров/сек
    Цветовое пространство : YUV
    Субдискретизация насыщенности : 4:2:0
    Битовая глубина : 8 бит
    Тип развёртки : Прогрессивная
    Метод сжатия : С потерями
    Бит/(Пиксели*Кадры) : 0.263
    Размер потока : 1,05 Гбайт (96%)
    Библиотека кодирования : DivX 5.2.1 Beta (UTC 2004-09-08)
    Аудио
    Идентификатор : 1
    Формат : MPEG Audio
    Версия формата : Version 1
    Профиль формата : Layer 3
    Идентификатор кодека : 55
    Идентификатор кодека/Подсказка : MP3
    Продолжительность : 1 ч. 1 м.
    Вид битрейта : Постоянный
    Битрейт : 96,0 Кбит/сек
    Каналы : 1 канал
    Частота : 44,1 КГц
    Метод сжатия : С потерями
    Задержка видео : 200 мс.
    Размер потока : 42,2 Мбайт (4%)
    Выравнивание : Разделение по промежуткам
    Продолжительность промежутка : 40 мс. (1,00 видеокадр)
    Время предзагрузки промежутка : 500 мс.
    Скриншоты:Время раздачи: С 23:00 до 7:30 (по возможности 24/7)
    Приятного просмотра! С праздником наступающим
    Скачать .torrent

    Скачать торрент-файл бесплатно и на максимальной скорости!

    Как скачивать? · Что такое торрент? · Рейтинг и ограничения

    !ВНИМАНИЕ!
    Сайт не распространяет и не хранит электронные версии произведений, а занимается лишь лишь предоставлением доступа к создаваемому пользователями каталогу ссылок на торрент-файлы, которые содержат только списки хеш-сумм, убедительная просьба с жалобами обращаться напрямую к пользователю. Файлы для обмена на трекере предоставлены пользователями сайта, и администрация не несёт ответственности за их содержание. Просьба не заливать файлы, защищенные авторскими правами, а также файлы нелегального содержания!


    _________________
    [Профиль] [ЛС]
    Показать сообщения:    
    Ответить на тему

    Текущее время: Сегодня, в 18:40

    Часовой пояс: GMT + 2



    Вы не можете начинать темы
    Вы не можете отвечать на сообщения
    Вы не можете редактировать свои сообщения
    Вы не можете удалять свои сообщения
    Вы не можете голосовать в опросах
    Вы не можете прикреплять файлы к сообщениям
    Вы не можете скачивать файлы