BitTorrentTracker PerecTracker.org
BitTorrentTracker PerecTracker.org
    
Регистрация  ·  Вход
 
 · 
Забыли пароль?

  • Юлька (1972) TVRip

    Ответить на тему
     
    Автор Сообщение

    Light

    Создавать темы 19-Ноя-2016 04:40

           

    [Цитировать]

    -Юлька (1972) TVRip-Год выпуска: 1972
    Производство: Одесская киностудия
    Жанр: Семейный, Детский, Драма
    Описание фильма:
    Героиня фильма - шестнадцатилетняя школьница Юля. Она привлекательна, немного модница, любит танцы, музыку. Учится Юлька плохо,
    из-за чего у нее частые неприятности дома и серьезные обострения с учителями. К решительным действиям побудило девушку знакомство с Колей - умным
    и энергичным юношей, стремящимся к самостоятельности и решившим поэтому уйти из школы в ПТУ. Несмотря на протесты матери, Юлька поступила туда же...
    Режиссер: Константин Жук
    Актеры: Ирина Варлей, Виктор Царьков, Сергей Проханов, Татьяна Кулиш, Михаил Кузнецов, Раиса Недашковская, Игорь Стариков, Майя Менглет, Юрий Пузырев,
    Вера Кузнецова, Алим Федоринский, Лариса Удовиченко.
    Продолжительность: 01:10:08
    Качество видео: TVRip

    Видеокодек: DivX 5
    Битрейт видео: ~2128 Кбит/сек
    Размер кадра: 512x384
    Аудиокодек: MP3, 1ch
    Битрейт аудио: 96,0 Кбит/сек

    MediaInfo:

    Общее
    Полное имя : E:\Интересно\!!!Конкурс детский\2Этап\!подг\Юлька\Юлька (1972) TVRip.avi
    Формат : AVI
    Формат/Информация : Audio Video Interleave
    Размер файла : 1,09 Гбайт
    Продолжительность : 1 ч. 10 м.
    Общий поток : 2233 Кбит/сек
    Название фильма : Jul'ka
    Режиссёр : Odesskaja kinostudija
    Дата записи : 1972
    Программа кодирования : VirtualDubMod 1.5.10.2 (build 2542/release)
    Библиотека кодирования : VirtualDubMod build 2542/release
    Примечание : TVrip by Turtle / DivX Pro 5.0.3 @ 0,434 bpp / Lame MP3 44,1 kHz Mono @ 96 kbps
    Видео
    Идентификатор : 0
    Формат : MPEG-4 Visual
    Параметр BVOP формата : 1
    Параметр QPel формата : Нет
    Параметр GMC формата : Без точки перехода
    Параметр матрицы формата : Default (H.263)
    Режим смешивания : Сжатый битовый поток
    Идентификатор кодека : DX50
    Идентификатор кодека/Подсказка : DivX 5
    Продолжительность : 1 ч. 10 м.
    Битрейт : 2128 Кбит/сек
    Ширина : 512 пикселей
    Высота : 384 пикселя
    Соотношение сторон : 4:3
    Частота кадров : 25,000 кадров/сек
    Цветовое пространство : YUV
    Субдискретизация насыщенности : 4:2:0
    Битовая глубина : 8 бит
    Тип развёртки : Прогрессивная
    Метод сжатия : С потерями
    Бит/(Пиксели*Кадры) : 0.433
    Размер потока : 1,04 Гбайт (95%)
    Библиотека кодирования : DivX 5.0.3 (UTC 2003-01-24)
    Аудио
    Идентификатор : 1
    Формат : MPEG Audio
    Версия формата : Version 1
    Профиль формата : Layer 3
    Идентификатор кодека : 55
    Идентификатор кодека/Подсказка : MP3
    Продолжительность : 1 ч. 10 м.
    Вид битрейта : Постоянный
    Битрейт : 96,0 Кбит/сек
    Каналы : 1 канал
    Частота : 44,1 КГц
    Метод сжатия : С потерями
    Задержка видео : 11 мс.
    Размер потока : 48,2 Мбайт (4%)
    Выравнивание : Разделение по промежуткам
    Продолжительность промежутка : 40 мс. (1,00 видеокадр)
    Время предзагрузки промежутка : 500 мс.
    Скриншоты:
    Время раздачи: С 18:00 до 23:00
    Скачать .torrent

    Скачать торрент-файл бесплатно и на максимальной скорости!

    Как скачивать? · Что такое торрент? · Рейтинг и ограничения

    !ВНИМАНИЕ!
    Сайт не распространяет и не хранит электронные версии произведений, а занимается лишь лишь предоставлением доступа к создаваемому пользователями каталогу ссылок на торрент-файлы, которые содержат только списки хеш-сумм, убедительная просьба с жалобами обращаться напрямую к пользователю. Файлы для обмена на трекере предоставлены пользователями сайта, и администрация не несёт ответственности за их содержание. Просьба не заливать файлы, защищенные авторскими правами, а также файлы нелегального содержания!


    _________________
    [Профиль] [ЛС]
    Показать сообщения:    
    Ответить на тему

    Текущее время: Сегодня, в 14:28

    Часовой пояс: GMT + 2



    Вы не можете начинать темы
    Вы не можете отвечать на сообщения
    Вы не можете редактировать свои сообщения
    Вы не можете удалять свои сообщения
    Вы не можете голосовать в опросах
    Вы не можете прикреплять файлы к сообщениям
    Вы не можете скачивать файлы