BitTorrentTracker PerecTracker.org
BitTorrentTracker PerecTracker.org
    
Регистрация  ·  Вход
 
 · 
Забыли пароль?

  • Юнга со шхуны "Колумб" (1963) DVD5

    Ответить на тему
     
    Автор Сообщение

    Light

    Создавать темы 19-Ноя-2016 04:40

           

    [Цитировать]

    -Юнга со шхуны "Колумб" (1963) DVD5-Год выпуска: 1963
    Производство: Киностудия им. А.Довженко
    Жанр: Военный, Приключения
    Описание фильма:
    Сценарий Юрий Чулюкин. По мотивам повести Н.Трублаини "Шхуна-Колумб". Подростки Марк и Лида, напав на след диверсанта, вовлекаются в гущу событий, связанных с поимкой шпиона. Благодаря ребятам, диверсанты, пытающиеся на захваченной шхуне "Колумб" уйти в открытое море, задерживаются пограничниками.
    Режиссер: Евгений Шерстобитов
    Актеры: Ирина Мицик, Владимир Кисленко, Виктор Мирошниченко, Иван Рыжов, Сережа Кривошлыков, Таня Фатеева, Дмитрий Франько, Витольд Янпавлис, Андрюша Деревянко, Софья Карамаш, Олег Мокшанцев, Алексей Бунин, Алиция Омельчук, Альфред Шестопалов, Геннадий Юхтин
    Продолжительность: 01:11:57
    Качество видео: DVD5

    Видеокодек: MPEG-2
    Битрейт видео: ~7530 Кбит/сек
    Размер кадра: 720x576
    Аудиокодек: AC3, 2 ch, 384 Кбит/сек

    DVDInfo:

    Title: Юнга со шхуны Колумб (1963) DVD5
    Size: 4.08 Gb ( 4 275 312,00 KBytes ) - DVD-5
    Enabled regions: 1, 2, 3, 4, 5, 6, 7, 8
    VTS_01 :
    Play Length: 01:11:57
    Video: PAL 4:3 (720x576) VBR, Letterboxed
    Audio:
    Russian (Dolby AC3, 2 ch)
    * Menus Information *
    VIDEO_TS Menu
    Video:
    PAL 4:3 (720x576) VBR
    Letterboxed
    Audio:
    Not specified (Dolby AC3, 2 ch)
    English Language Unit :
    Title Menu
    VTS_01 Menu
    Video:
    PAL 4:3 (720x576) VBR
    Audio:
    Not specified (Dolby AC3, 2 ch)
    English Language Unit :
    Root Menu

    MediaInfo:

    Общее
    Полное имя : W:\Интересно\Юнга со шхуны Колумб\Юнга со шхуны Колумб (1963) DVD5\VIDEO_TS\VTS_01_1.VOB
    Формат : MPEG-PS
    Размер файла : 1024 Мбайт
    Продолжительность : 17 м.
    Режим общего битрейта : Переменный
    Общий поток : 8058 Кбит/сек
    Библиотека кодирования : (c) 1998-2007 Womble Multimedia, Inc. / MPEG Video Wizard (12/2007) / Jan 12 2008
    Видео
    Идентификатор : 224 (0xE0)
    Формат : MPEG Video
    Версия формата : Version 2
    Профиль формата : Main@Main
    Параметр BVOP формата : Да
    Параметр матрицы формата : Выборочная
    Параметр GOP формата : M=3, N=12
    Продолжительность : 17 м.
    Вид битрейта : Переменный
    Битрейт : 7530 Кбит/сек
    Ширина : 720 пикселей
    Высота : 576 пикселей
    Соотношение сторон : 4:3
    Частота кадров : 25,000 кадров/сек
    Стандарт вещания : PAL
    Цветовое пространство : YUV
    Субдискретизация насыщенности : 4:2:0
    Битовая глубина : 8 бит
    Тип развёртки : Чересстрочная
    Порядок развёртки : Верхнее поле первое
    Метод сжатия : С потерями
    Бит/(Пиксели*Кадры) : 0.726
    Временной код первого кадра : 00:00:00:00
    Оригинал временного кода : Group of pictures header
    Размер потока : 955 Мбайт (93%)
    Библиотека кодирования : (c) 1998-2007 Womble Multimedia, Inc. / MPEG Video Wizard (12/2007) / Jan 12 2008
    Аудио
    Идентификатор : 189 (0xBD)-128 (0x80)
    Формат : AC-3
    Формат/Информация : Audio Coding 3
    Расширение режима : CM (complete main)
    Параметр Endianness формата : Big
    Режим смешивания : DVD-Video
    Продолжительность : 17 м.
    Вид битрейта : Постоянный
    Битрейт : 384 Кбит/сек
    Каналы : 2 канала
    Расположение каналов : Front: L R
    Частота : 48,0 КГц
    Битовая глубина : 16 бит
    Метод сжатия : С потерями
    Задержка видео : -80 мс.
    Размер потока : 48,8 Мбайт (5%)
    Меню

    MenuDVD:

    Скриншоты:
    Скачать .torrent

    Скачать торрент-файл бесплатно и на максимальной скорости!

    Как скачивать? · Что такое торрент? · Рейтинг и ограничения

    !ВНИМАНИЕ!
    Сайт не распространяет и не хранит электронные версии произведений, а занимается лишь лишь предоставлением доступа к создаваемому пользователями каталогу ссылок на торрент-файлы, которые содержат только списки хеш-сумм, убедительная просьба с жалобами обращаться напрямую к пользователю. Файлы для обмена на трекере предоставлены пользователями сайта, и администрация не несёт ответственности за их содержание. Просьба не заливать файлы, защищенные авторскими правами, а также файлы нелегального содержания!


    _________________
    [Профиль] [ЛС]
    Показать сообщения:    
    Ответить на тему

    Текущее время: Сегодня, в 14:30

    Часовой пояс: GMT + 2



    Вы не можете начинать темы
    Вы не можете отвечать на сообщения
    Вы не можете редактировать свои сообщения
    Вы не можете удалять свои сообщения
    Вы не можете голосовать в опросах
    Вы не можете прикреплять файлы к сообщениям
    Вы не можете скачивать файлы