BitTorrentTracker PerecTracker.org
BitTorrentTracker PerecTracker.org
    
Регистрация  ·  Вход
 
 · 
Забыли пароль?

  • Юрка - сын командира (1984) SATRip

    Ответить на тему
     
    Автор Сообщение

    Light

    Создавать темы 19-Ноя-2016 04:40

           

    [Цитировать]

    -Юрка - сын командира (1984) SATRip-Год выпуска: 1984
    Жанр: Детский
    Описание фильма:
    Семилетний Юрка - сын пограничника - переезжает с отцом на белорусскую погранзаставу и в первый же день узнает о том, что здесь нет ни одного сверстника. Случайное знакомство с ефрейтором Шахназаровым выливается в трогательную дружбу. Когда старший друг с тяжелой раной, полученной при задержании преступника, попадает в госпиталь, Юрка, не задумываясь, предлагает свою кровь.
    Режиссер: Николай Лукьянов
    Актеры: Олег Полушкин, Андрей Анкудинов, Евгений Никитин, Светлана Михалькова, Ольга Ероховец, Юрий Казючиц, Раиса Астрединова, Владимир Трещалов, Сосо Джачвлиани, Алексей Колокольцев
    Продолжительность: 01:09:12
    Качество видео: SATRip


    Видеокодек: Xvid
    Битрейт видео: ~2049 Кбит/сек
    Размер кадра: 720x544
    Аудиокодек: AC3 2.0
    Битрейт аудио: 192 Кбит/сек

    MediaInfo:

    Общее
    Полное имя : E:\Интересно\!!!Конкурс детский\2Этап\Юрка – сын командира\Юрка - сын командира (1984) SATRip.avi
    Формат : AVI
    Формат/Информация : Audio Video Interleave
    Размер файла : 1,09 Гбайт
    Продолжительность : 1 ч. 9 м.
    Общий поток : 2250 Кбит/сек
    Программа кодирования : VirtualDubMod 1.5.10.3 | www.virtualdub-fr.org || (build 2550/release)
    Библиотека кодирования : VirtualDubMod build 2550/release
    Видео
    Идентификатор : 0
    Формат : MPEG-4 Visual
    Профиль формата : Advanced Simple@L5
    Параметр BVOP формата : 1
    Параметр QPel формата : Нет
    Параметр GMC формата : Без точки перехода
    Параметр матрицы формата : Default (MPEG)
    Идентификатор кодека : XVID
    Идентификатор кодека/Подсказка : XviD
    Продолжительность : 1 ч. 9 м.
    Битрейт : 2049 Кбит/сек
    Ширина : 720 пикселей
    Высота : 544 пикселя
    Соотношение сторон : 4:3
    Частота кадров : 25,000 кадров/сек
    Цветовое пространство : YUV
    Субдискретизация насыщенности : 4:2:0
    Битовая глубина : 8 бит
    Тип развёртки : Прогрессивная
    Метод сжатия : С потерями
    Бит/(Пиксели*Кадры) : 0.209
    Размер потока : 1014 Мбайт (91%)
    Библиотека кодирования : XviD 1.2.1 (UTC 2008-12-04)
    Аудио
    Идентификатор : 1
    Формат : AC-3
    Формат/Информация : Audio Coding 3
    Расширение режима : CM (complete main)
    Параметр Endianness формата : Big
    Идентификатор кодека : 2000
    Продолжительность : 1 ч. 9 м.
    Вид битрейта : Постоянный
    Битрейт : 192 Кбит/сек
    Каналы : 2 канала
    Расположение каналов : Front: L R
    Частота : 48,0 КГц
    Битовая глубина : 16 бит
    Метод сжатия : С потерями
    Размер потока : 95,0 Мбайт (9%)
    Выравнивание : Разделение по промежуткам
    Продолжительность промежутка : 40 мс. (1,00 видеокадр)
    Время предзагрузки промежутка : 500 мс.
    Скриншоты:
    Скачать .torrent

    Скачать торрент-файл бесплатно и на максимальной скорости!

    Как скачивать? · Что такое торрент? · Рейтинг и ограничения

    !ВНИМАНИЕ!
    Сайт не распространяет и не хранит электронные версии произведений, а занимается лишь лишь предоставлением доступа к создаваемому пользователями каталогу ссылок на торрент-файлы, которые содержат только списки хеш-сумм, убедительная просьба с жалобами обращаться напрямую к пользователю. Файлы для обмена на трекере предоставлены пользователями сайта, и администрация не несёт ответственности за их содержание. Просьба не заливать файлы, защищенные авторскими правами, а также файлы нелегального содержания!


    _________________
    [Профиль] [ЛС]
    Показать сообщения:    
    Ответить на тему

    Текущее время: Сегодня, в 20:07

    Часовой пояс: GMT + 2



    Вы не можете начинать темы
    Вы не можете отвечать на сообщения
    Вы не можете редактировать свои сообщения
    Вы не можете удалять свои сообщения
    Вы не можете голосовать в опросах
    Вы не можете прикреплять файлы к сообщениям
    Вы не можете скачивать файлы