BitTorrentTracker PerecTracker.org
BitTorrentTracker PerecTracker.org
    
Регистрация  ·  Вход
 
 · 
Забыли пароль?

  • Юрка - сын командира (1984) TVRip

    Ответить на тему
     
    Автор Сообщение

    Light

    Создавать темы 19-Ноя-2016 04:40

           

    [Цитировать]

    -Юрка - сын командира (1984) TVRip-Русское название: Юрка - сын командира
    Год выпуска: 1984
    Жанр: Детский

    Релиз группа: Описание фильма:Семилетний Юрка — сын пограничника — переезжает с отцом на белорусскую погранзаставу и в первый же день узнает о том, что здесь нет ни одного сверстника. Случайное знакомство с лейтенантом Шахназаровым выливается в трогательную дружбу. Когда старший друг с тяжелой раной, полученной при задержании преступника, попадает в госпиталь, Юрка, не задумываясь, предлагает свою кровь.Режиссер: Николай Лукьянов
    Актеры: Олег Полушкин, Андрей Анкудинов, Евгений Никитин, Светлана Михалькова, Ольга Ероховец, Юрий Казючиц, Раиса Астрединова, Владимир Трещалов, Сосо Джачвлиани, Алексей Колокольцев
    Продолжительность: 01:09:52
    Видеокодек: Xvid
    Битрейт видео: ~1265 kb/s
    Размер кадра: 720x544
    Качество видео: TVRip
    Аудиокодек: MP3, 2 ch
    Битрейт аудио: 128 kb/s

    MediaInfo

    Общее
    Полное имя : D:\Фильм\Юрка - сын командира.1984.XviD.SATRip..avi
    Формат : AVI
    Формат/Информация : Audio Video Interleave
    Размер файла : 702 Мбайт
    Продолжительность : 1 ч. 9 м.
    Общий поток : 1406 Кбит/сек
    Программа кодирования : MEncoder dev-SVN-rUNKNOWN-4.2.1
    Библиотека кодирования : MPlayer
    Видео
    Идентификатор : 0
    Формат : MPEG-4 Visual
    Профиль формата : Advanced Simple@L5
    Параметр BVOP формата : 2
    Параметр QPel формата : Нет
    Параметр GMC формата : Без точки перехода
    Параметр матрицы формата : Default (H.263)
    Идентификатор кодека : XVID
    Идентификатор кодека/Подсказка : XviD
    Продолжительность : 1 ч. 9 м.
    Битрейт : 1265 Кбит/сек
    Ширина : 720 пикс.
    Высота : 544 пикс.
    Соотношение сторон : 4:3
    Частота кадров : 25,000 кадр/сек
    Цветовое пространство : YUV
    Подвыборка цветности : 4:2:0
    Битовая глубина : 8 бит
    Тип развёртки : Прогрессивная
    Метод сжатия : С потерями
    Бит/(Пиксели*Кадры) : 0.129
    Размер потока : 632 Мбайт (90%)
    Библиотека кодирования : XviD 1.2.0.dev47 (UTC 2006-11-01)
    Аудио
    Идентификатор : 1
    Формат : MPEG Audio
    Версия формата : Version 1
    Профиль формата : Layer 3
    Режим : Joint stereo
    Идентификатор кодека : 55
    Идентификатор кодека/Подсказка : MP3
    Продолжительность : 1 ч. 9 м.
    Вид битрейта : Постоянный
    Битрейт : 128 Кбит/сек
    Канал(ы) : 2 канала(ов)
    Частота : 44,1 КГц
    Метод сжатия : С потерями
    Задержка видео : 40 мс.
    Размер потока : 64,0 Мбайт (9%)
    Выравнивание : Соединение по промежуткам
    Продолжительность промежутка : 26 мс. (0,65 видеокадр)
    Время предзагрузки промежутка : 522 ms
    Скриншоты:
    Скачать .torrent

    Скачать торрент-файл бесплатно и на максимальной скорости!

    Как скачивать? · Что такое торрент? · Рейтинг и ограничения

    !ВНИМАНИЕ!
    Сайт не распространяет и не хранит электронные версии произведений, а занимается лишь лишь предоставлением доступа к создаваемому пользователями каталогу ссылок на торрент-файлы, которые содержат только списки хеш-сумм, убедительная просьба с жалобами обращаться напрямую к пользователю. Файлы для обмена на трекере предоставлены пользователями сайта, и администрация не несёт ответственности за их содержание. Просьба не заливать файлы, защищенные авторскими правами, а также файлы нелегального содержания!


    _________________
    [Профиль] [ЛС]
    Показать сообщения:    
    Ответить на тему

    Текущее время: Сегодня, в 18:27

    Часовой пояс: GMT + 2



    Вы не можете начинать темы
    Вы не можете отвечать на сообщения
    Вы не можете редактировать свои сообщения
    Вы не можете удалять свои сообщения
    Вы не можете голосовать в опросах
    Вы не можете прикреплять файлы к сообщениям
    Вы не можете скачивать файлы