BitTorrentTracker PerecTracker.org
BitTorrentTracker PerecTracker.org
    
Регистрация  ·  Вход
 
 · 
Забыли пароль?

  • Я купил папу (1963) DVBRip

    Ответить на тему
     
    Автор Сообщение

    Light

    Создавать темы 19-Ноя-2016 04:40

           

    [Цитировать]

    -Я купил папу (1963) DVBRip-Русское название: Я купил папу
    Год выпуска: 1963
    Жанр: Семейный, Детский
    Описание фильма:
    Димке пять лет - и у него нет отца. Однажды мальчик решил, что деньги, отложенные на покупку папы, мама просто потратила на мороженое. Исправить положение он решил сам - и отправился в универмаг, в витрине которого видел очень красивого "дядю"...
    Режиссер: Илья Фрэз
    Актеры: Семён Морозов,Алёша Загорский, Ольга Лысенко, Владимир Трещалов, Светлана Агеева,Марина (Мария) Гаврилко, Анатолий Касапов, Зинаида Нарышкина, Геннадий Фролов, Вера Орлова, Володя Семёнов, Лёня Никитин,Георгий Милляр, Пётр Репнин,Марина Фигнер
    Продолжительность: 01:16:38

    Видеокодек: MPEG-2
    Битрейт видео: ~2707 Кбит/сек
    Размер кадра: 720x576
    Качество видео: DVBRip
    Аудиокодек: MP2, 2 ch
    Битрейт аудио: 192 Кбит/сек

    MediaInfo:

    Общее
    Полное имя : G:\!V\Я купил папу\Я купил папу.mpg
    Формат : MPEG-PS
    Размер файла : 1,58 Гбайт
    Продолжительность : 1 ч. 16 м.
    Режим общего битрейта : Переменный
    Общий поток : 2958 Кбит/сек
    Библиотека кодирования : (c) 1998-2012 Womble Multimedia, Inc. / MPEG Video Wizard DVD 5.0.1.100 (03/2011) / Oct 5 2012
    Видео
    Идентификатор : 224 (0xE0)
    Формат : MPEG Video
    Версия формата : Version 2
    Профиль формата : Main@Main
    Параметр BVOP формата : Да
    Параметр матрицы формата : Выборочная
    Параметр GOP формата : Variable
    Продолжительность : 1 ч. 16 м.
    Вид битрейта : Переменный
    Битрейт : 2707 Кбит/сек
    Ширина : 720 пикселей
    Высота : 576 пикселей
    Соотношение сторон : 4:3
    Частота кадров : 25,000 кадров/сек
    Стандарт вещания : PAL
    Цветовое пространство : YUV
    Субдискретизация насыщенности : 4:2:0
    Битовая глубина : 8 бит
    Тип развёртки : Чересстрочная
    Порядок развёртки : Верхнее поле первое
    Метод сжатия : С потерями
    Бит/(Пиксели*Кадры) : 0.261
    Размер потока : 1,45 Гбайт (92%)
    Выравнивание : (c) 1998-2012 Womble Multimedia, Inc. / MPEG Video Wizard DVD 5.0.1.100 (03/2011) / Oct 5 2012
    Заголовок : (c) 1998-2012 Womble Multimedia, Inc. / MPEG Video Wizard DVD 5.0.1.100 (03/2011) / Oct 5 2012
    Библиотека кодирования : (c) 1998-2012 Womble Multimedia, Inc. / MPEG Video Wizard DVD 5.0.1.100 (03/2011) / Oct 5 2012
    Аудио
    Идентификатор : 192 (0xC0)
    Формат : MPEG Audio
    Версия формата : Version 1
    Профиль формата : Layer 2
    Продолжительность : 1 ч. 16 м.
    Вид битрейта : Постоянный
    Битрейт : 192 Кбит/сек
    Каналы : 2 канала
    Частота : 48,0 КГц
    Метод сжатия : С потерями
    Размер потока : 105 Мбайт (6%)
    Меню
    Скриншоты:
    Скачать .torrent

    Скачать торрент-файл бесплатно и на максимальной скорости!

    Как скачивать? · Что такое торрент? · Рейтинг и ограничения

    !ВНИМАНИЕ!
    Сайт не распространяет и не хранит электронные версии произведений, а занимается лишь лишь предоставлением доступа к создаваемому пользователями каталогу ссылок на торрент-файлы, которые содержат только списки хеш-сумм, убедительная просьба с жалобами обращаться напрямую к пользователю. Файлы для обмена на трекере предоставлены пользователями сайта, и администрация не несёт ответственности за их содержание. Просьба не заливать файлы, защищенные авторскими правами, а также файлы нелегального содержания!


    _________________
    [Профиль] [ЛС]
    Показать сообщения:    
    Ответить на тему

    Текущее время: Сегодня, в 14:26

    Часовой пояс: GMT + 2



    Вы не можете начинать темы
    Вы не можете отвечать на сообщения
    Вы не можете редактировать свои сообщения
    Вы не можете удалять свои сообщения
    Вы не можете голосовать в опросах
    Вы не можете прикреплять файлы к сообщениям
    Вы не можете скачивать файлы