BitTorrentTracker PerecTracker.org
BitTorrentTracker PerecTracker.org
    
Регистрация  ·  Вход
 
 · 
Забыли пароль?

  • Я подожду тебя, Тяпа (1986) TS

    Ответить на тему
     
    Автор Сообщение

    Light

    Создавать темы 19-Ноя-2016 04:40

           

    [Цитировать]

    -Я подожду тебя, Тяпа (1985) TS-Год выпуска: 1986
    Жанр: Детский, фильм-концерт
    Описание фильма:
    Режиссер: Лев Цуцульковский
    Актеры: Артисты Московского цирка на льду; Дрессировщики: Г.Будницкий, М.Шаевская, Маша Гордаш; В роли Тяпы: медведица Ева.
    Описание: Московский цирк на льду представляет праздничное, яркое, виртуозное зрелище, где все трюки исполняют дрессированные животные на коньках.
    Продолжительность: 00:44:50
    Качество видео: TVRip

    Видеокодек: XVID
    Битрейт видео: ~1488 Кбит/сек
    Размер кадра: 688x570
    Аудиокодек: MP3, 2 ch, 128 Кбит/сек

    MediaInfo:

    Общее
    Полное имя : E:\Интересно\!!!Конкурс детский\2Этап\!\Я подожду тебя, Тяпа\Я подожду тебя, Тяпа (1985) TS.avi
    Формат : AVI
    Формат/Информация : Audio Video Interleave
    Размер файла : 521 Мбайт
    Продолжительность : 44 м.
    Общий поток : 1626 Кбит/сек
    Название фильма : Я подожду тебя, Тяпа
    Режиссёр : chizhik
    Жанр : Child's
    Формат оригинала/Имя : TV Broadcast
    Правообладатель : abarmail
    Примечание : Ripped for www.torrents.ru
    Видео
    Идентификатор : 0
    Формат : MPEG-4 Visual
    Профиль формата : Advanced Simple@L5
    Параметр BVOP формата : 2
    Параметр QPel формата : Нет
    Параметр GMC формата : Без точки перехода
    Параметр матрицы формата : Default (H.263)
    Режим смешивания : Сжатый битовый поток
    Идентификатор кодека : XVID
    Идентификатор кодека/Подсказка : XviD
    Продолжительность : 44 м.
    Битрейт : 1488 Кбит/сек
    Ширина : 688 пикселей
    Высота : 570 пикселей
    Соотношение сторон : 1,207
    Частота кадров : 25,000 кадров/сек
    Цветовое пространство : YUV
    Субдискретизация насыщенности : 4:2:0
    Битовая глубина : 8 бит
    Тип развёртки : Прогрессивная
    Метод сжатия : С потерями
    Бит/(Пиксели*Кадры) : 0.152
    Размер потока : 477 Мбайт (92%)
    Библиотека кодирования : XviD 1.2.1 (UTC 2008-12-04)
    Аудио
    Идентификатор : 1
    Формат : MPEG Audio
    Версия формата : Version 1
    Профиль формата : Layer 3
    Режим : Joint stereo
    Расширение режима : MS Stereo
    Идентификатор кодека : 55
    Идентификатор кодека/Подсказка : MP3
    Продолжительность : 44 м.
    Вид битрейта : Постоянный
    Битрейт : 128 Кбит/сек
    Каналы : 2 канала
    Частота : 48,0 КГц
    Метод сжатия : С потерями
    Размер потока : 41,0 Мбайт (8%)
    Выравнивание : Разделение по промежуткам
    Продолжительность промежутка : 40 мс. (1,00 видеокадр)
    Время предзагрузки промежутка : 500 мс.
    Библиотека кодирования : LAME3.98.2
    Скриншоты:Время раздачи: С 8:00 до 20:00
    Скачать .torrent

    Скачать торрент-файл бесплатно и на максимальной скорости!

    Как скачивать? · Что такое торрент? · Рейтинг и ограничения

    !ВНИМАНИЕ!
    Сайт не распространяет и не хранит электронные версии произведений, а занимается лишь лишь предоставлением доступа к создаваемому пользователями каталогу ссылок на торрент-файлы, которые содержат только списки хеш-сумм, убедительная просьба с жалобами обращаться напрямую к пользователю. Файлы для обмена на трекере предоставлены пользователями сайта, и администрация не несёт ответственности за их содержание. Просьба не заливать файлы, защищенные авторскими правами, а также файлы нелегального содержания!


    _________________
    [Профиль] [ЛС]
    Показать сообщения:    
    Ответить на тему

    Текущее время: Сегодня, в 20:08

    Часовой пояс: GMT + 2



    Вы не можете начинать темы
    Вы не можете отвечать на сообщения
    Вы не можете редактировать свои сообщения
    Вы не можете удалять свои сообщения
    Вы не можете голосовать в опросах
    Вы не можете прикреплять файлы к сообщениям
    Вы не можете скачивать файлы