BitTorrentTracker PerecTracker.org
BitTorrentTracker PerecTracker.org
    
Регистрация  ·  Вход
 
 · 
Забыли пароль?

  • Я придумываю песню (1978) TVRip

    Ответить на тему
     
    Автор Сообщение

    Light

    Создавать темы 19-Ноя-2016 04:40

           

    [Цитировать]

    -Я придумываю песню (1978) TVRip-Год выпуска: 1978
    Киностудия: СССР, Азербайджанфильм по заказу Гостелерадио СССР
    Жанр: Детский, Музыкальный
    Описание фильма:
    В одно из азербайджанских сёл Карабаха для отбора талантливых детей из райцентра приезжает представитель музыкальной школы-интерната. Ему помогает местный аксакал и музыкант-кяманчист Бахман-даи. Много в селе способных детей, но наиболее талантлива 10-летняя дочь мельника и всеобщая любимица, звонкоголосая Сона. Её готовы зачислить в школу без всякого конкурса, но отец категорически против — он не желает, чтобы Сона стала артисткой. И ничьи уговоры не помогают.
    Режиссер: Тофик Исмаилов
    Композитор: Полад Бюль-Бюль оглы
    Актеры: Оля Рождественская, Эльхан Джафаров, Гасанага Турабов, Константин Даушвили, Насиба Зейналова, Лейла Бадирбейли, Эльданиз Зейналов, Амалия Панахова, Садых Гусейнов, Кямиль Магерамов, Агасадых Герайбейли, Рафик Азимов, Гюльшан Курбанова, Октай Шейхов.
    Продолжительность: 01:14:41
    Качество видео: TVRip

    Видеокодек: Xvid
    Битрейт видео: ~1615 Кбит/сек
    Размер кадра: 720x544
    Аудиокодек: MP3, 2 ch
    Битрейт аудио: 224 Кбит/сек

    MediaInfo:

    Общее
    Полное имя : W:\Интересно\!Детские\Я придумываю песню\Я придумываю песню (1978) TVRip.avi
    Формат : AVI
    Формат/Информация : Audio Video Interleave
    Размер файла : 986 Мбайт
    Продолжительность : 1 ч. 14 м.
    Общий поток : 1846 Кбит/сек
    Видео
    Идентификатор : 0
    Формат : MPEG-4 Visual
    Профиль формата : Simple@L3
    Параметр BVOP формата : Нет
    Параметр QPel формата : Нет
    Параметр GMC формата : Без точки перехода
    Параметр матрицы формата : Default (H.263)
    Идентификатор кодека : XVID
    Идентификатор кодека/Подсказка : XviD
    Продолжительность : 1 ч. 14 м.
    Битрейт : 1615 Кбит/сек
    Ширина : 720 пикселей
    Высота : 544 пикселя
    Соотношение сторон : 4:3
    Частота кадров : 25,000 кадров/сек
    Цветовое пространство : YUV
    Субдискретизация насыщенности : 4:2:0
    Битовая глубина : 8 бит
    Тип развёртки : Прогрессивная
    Метод сжатия : С потерями
    Бит/(Пиксели*Кадры) : 0.165
    Размер потока : 863 Мбайт (87%)
    Библиотека кодирования : ZJMedia MPEG Encoder
    Аудио
    Идентификатор : 1
    Формат : MPEG Audio
    Версия формата : Version 1
    Профиль формата : Layer 3
    Режим : Joint stereo
    Расширение режима : MS Stereo
    Идентификатор кодека : 55
    Идентификатор кодека/Подсказка : MP3
    Продолжительность : 1 ч. 14 м.
    Вид битрейта : Постоянный
    Битрейт : 224 Кбит/сек
    Каналы : 2 канала
    Частота : 48,0 КГц
    Метод сжатия : С потерями
    Размер потока : 120 Мбайт (12%)
    Выравнивание : Разделение по промежуткам
    Продолжительность промежутка : 1000 мс. (24,99 видеокадров)
    Скриншоты:
    Время раздачи: С 18:00 до 23:00
    Скачать .torrent

    Скачать торрент-файл бесплатно и на максимальной скорости!

    Как скачивать? · Что такое торрент? · Рейтинг и ограничения

    !ВНИМАНИЕ!
    Сайт не распространяет и не хранит электронные версии произведений, а занимается лишь лишь предоставлением доступа к создаваемому пользователями каталогу ссылок на торрент-файлы, которые содержат только списки хеш-сумм, убедительная просьба с жалобами обращаться напрямую к пользователю. Файлы для обмена на трекере предоставлены пользователями сайта, и администрация не несёт ответственности за их содержание. Просьба не заливать файлы, защищенные авторскими правами, а также файлы нелегального содержания!


    _________________
    [Профиль] [ЛС]
    Показать сообщения:    
    Ответить на тему

    Текущее время: Сегодня, в 20:05

    Часовой пояс: GMT + 2



    Вы не можете начинать темы
    Вы не можете отвечать на сообщения
    Вы не можете редактировать свои сообщения
    Вы не можете удалять свои сообщения
    Вы не можете голосовать в опросах
    Вы не можете прикреплять файлы к сообщениям
    Вы не можете скачивать файлы