BitTorrentTracker PerecTracker.org
BitTorrentTracker PerecTracker.org
    
Регистрация  ·  Вход
 
 · 
Забыли пароль?

  • Бестселлер по любви (Николай Михайлов) [2016, Мелодрама, WEB-DLRip]

    Ответить на тему
     
    Автор Сообщение

    Flirldrerve

    Создавать темы 19-Ноя-2016 00:50

           

    [Цитировать]

    Бестселлер по любви
    Жанр: Мелодрама
    Год выпуска: 2016
    Продолжительность: 01:32:11
    Режиссёр: Николай Михайлов
    В ролях: Илья Бледный, Мария Козакова
    Описание: Константин – сердцеед, и ни одна девушка не может устоять перед его чарами. Выбрав жертву, Константин узнаёт о ней как можно больше, так что все знаки внимания, оказываемые им, попадают прямо в цель. Мужчина крутит любовь с девушками не больше двух месяцев, а потом их бросает. Романы нужны ему исключительно для работы, ведь он пишет детективы, и девушки – его музы. И вот однажды Костя знакомится с "серой мышью", библиотекаршей Асей. Она первая, на кого его чары не действуют. Задетый за живое, донжуан заключает спор со своим другом, что завоюет и её.-Релиз от: -Сэмпл: http://multi-up.com/1127480
    Качество видео: WEB-DLRip
    Формат видео: AVI
    Видео: 720x400 (16:9), 25.000 fps, XviD build 73, 1 923 Kbps, 0.26 Bits/Pixel
    Аудио: 48 kHz, AC3 Dolby Digital, 2 ch, 192 Kbps

    MediaInfo

    General
    Complete name : Downloads\Besceler.po.liubvy.2016.WEB-DLRip.Files-x.avi
    Format : AVI
    Format/Info : Audio Video Interleave
    File size : 1.37 GiB
    Duration : 1h 32mn
    Overall bit rate : 2 125 Kbps
    Writing application : VirtualDubMod 1.5.10.3 | www.virtualdub-fr.org || (build 2550/release)
    Writing library : VirtualDubMod build 2550/release
    Video #0
    ID : 0
    Format : MPEG-4 Visual
    Format profile : Advanced Simple@L5
    Format settings, BVOP : 1
    Format settings, QPel : No
    Format settings, GMC : No warppoints
    Format settings, Matrix : Custom
    Codec ID : XVID
    Codec ID/Hint : XviD
    Duration : 1h 32mn
    Bit rate : 1 923 Kbps
    Width : 720 pixels
    Height : 400 pixels
    Display aspect ratio : 16:9
    Frame rate : 25.000 fps
    Color space : YUV
    Chroma subsampling : 4:2:0
    Bit depth : 8 bits
    Scan type : Progressive
    Compression mode : Lossy
    Bits/(Pixel*Frame) : 0.267
    Stream size : 1.24 GiB (91%)
    Writing library : XviD 73
    Audio #1
    ID : 1
    Format : AC-3
    Format/Info : Audio Coding 3
    Mode extension : CM (complete main)
    Format settings, Endianness : Big
    Codec ID : 2000
    Duration : 1h 32mn
    Bit rate mode : Constant
    Bit rate : 192 Kbps
    Channel(s) : 2 channels
    Channel positions : Front: L R
    Sampling rate : 48.0 KHz
    Bit depth : 16 bits
    Compression mode : Lossy
    Stream size : 127 MiB (9%)
    Alignment : Split accross interleaves
    Interleave, duration : 40 ms (1.00 video frame)
    Interleave, preload duration : 500 ms

    Скриншот c названием фильма

    Скриншоты

    Скачать .torrent

    Скачать торрент-файл бесплатно и на максимальной скорости!

    Как скачивать? · Что такое торрент? · Рейтинг и ограничения

    !ВНИМАНИЕ!
    Сайт не распространяет и не хранит электронные версии произведений, а занимается лишь лишь предоставлением доступа к создаваемому пользователями каталогу ссылок на торрент-файлы, которые содержат только списки хеш-сумм, убедительная просьба с жалобами обращаться напрямую к пользователю. Файлы для обмена на трекере предоставлены пользователями сайта, и администрация не несёт ответственности за их содержание. Просьба не заливать файлы, защищенные авторскими правами, а также файлы нелегального содержания!


    _________________
    [Профиль] [ЛС]
    Показать сообщения:    
    Ответить на тему

    Текущее время: Сегодня, в 20:09

    Часовой пояс: GMT + 2



    Вы не можете начинать темы
    Вы не можете отвечать на сообщения
    Вы не можете редактировать свои сообщения
    Вы не можете удалять свои сообщения
    Вы не можете голосовать в опросах
    Вы не можете прикреплять файлы к сообщениям
    Вы не можете скачивать файлы