BitTorrentTracker PerecTracker.org
BitTorrentTracker PerecTracker.org
    
Регистрация  ·  Вход
 
 · 
Забыли пароль?

  • [ATV3] Механик: Воскрешение / Mechanic: Resurrection (Деннис Ганзель / Dennis Gansel ) [2016, США, Боевик, триллер, криминал, BDRip, HD (1080p)] DUB + Original + sub (rus, eng)

    Ответить на тему
     
    Автор Сообщение

    rechyn

    Создавать темы 19-Ноя-2016 00:50

           

    [Цитировать]

    Механик: Воскрешение / Mechanic: Resurrection
    «Four continents. Three kills... Or the love of his life is dead»
    -Год выпуска: 2016
    Страна: США
    Жанр: Боевик, триллер, криминал
    Продолжительность: 01:38:38
    Перевод: Дублированный (iTunes)
    Оригинальная аудиодорожка: Есть
    Cубтитры: Русские, Английские
    Режиссёр: Деннис Ганзель
    Сценарий: Филип Шелби, Тони Мошер, Рэйчел Лонг
    Продюсер: Уильям Чартофф, Роберт Эрл, Джон Томпсон
    Оператор: Даниэль Готтшалк
    Композитор: Марк Айшем
    Художник: Себастьян Т. Кравинкель, Антонелло Рубино, Аарон Хэй
    Монтаж: Уэли Кристен, Майкл Дж. Дути, Тодд Е. Миллер
    В ролях: Джейсон Стэйтем, Джессика Альба, Томми Ли Джонс, Мишель Йео, Сэм Хэзелдайн, Джон Ченатьемпо, Тоби Эддингтон, Феми Элуфоводжо, Антео Квинтавалле, Ейяин Рхатха Пхонгам
    Бюджет: $40 000 000
    Сборы в США: $21 218 403
    Сборы в мире: + $88 209 050 = $109 427 453
    Сборы в России: $3 013 155
    Мировая премьера: 22 августа 2016
    Премьера (РФ): 26 августа 2016, «MEGOGO Distribution»
    Описание: Артура Бишопа, давно оставившего свое криминальное ремесло, вынуждают снова вступить в игру. Чтобы похитители вернули его возлюбленную, он должен сделать то, что у него получается лучше всего: от него требуется совершить три убийства, идеально обставленных как несчастные случаи.-Качество исходника: BDRemux (HDClub)
    Качество: BDRip
    Тип: HD (1080p)
    Контейнер: M4V
    Видео: H.264, 1920x800, 2.40:1, 8 000 Kbps, 23.976 fps
    Аудио 1: Русский/Дублированный (iTunes), AAC / 2.0 / 160 Kbps / 48.0 KHz
    Аудио 2: Английский/Оригинальная дорожка , AAC / 2.0 / 160 Kbps / 48.0 KHz
    Аудио 3: Русский/Дублированный (iTunes), AC-3 / 5.1 / 384 Kbps / 48.0 KHz
    Аудио 4: Английский/Оригинальная дорожка , AC-3 / 5.1 / 640 Kbps / 48.0 KHz
    Субтитры 1: Русские полные
    Субтитры 2: Английские полные
    -

    iTunes Meta Tags

    Sort Name: Mechanic Resurrection
    XID: Apple:vendor_id:2016-837525
    contentID: 1142118992
    Screenwriters: Филип Шелби, Тони Мошер, Рэйчел Лонг
    Producers: Уильям Чартофф, Роберт Эрл, Джон Томпсон
    Director: Деннис Ганзель
    Cast: Джейсон Стэйтем, Джессика Альба, Томми Ли Джонс, Мишель Йео, Сэм Хэзелдайн, Джон Ченатьемпо, Тоби Эддингтон, Феми Элуфоводжо, Антео Квинтавалле, Ейяин Рхатха Пхонгам
    Studio: Lionsgate
    Rating Annotation: Rated R for violence throughout and language.
    Rating: 5
    Long Description: Артура Бишопа, давно оставившего свое криминальное ремесло, вынуждают снова вступить в игру. Чтобы похитители вернули его возлюбленную, он должен сделать то, что у него получается лучше всего: от него требуется совершить три убийства, идеально обставленных как несчастные случаи.
    Description: Артура Бишопа, давно оставившего свое криминальное ремесло, вынуждают снова вступить в игру. Чтобы похитители вернули его возлюбленную, он должен сделать то, что у него получается лучше всего: от него требуется совершить три убийства, идеально обставленных как несчастные случаи.
    Release Date: 2016-08-22T08:00:00Z
    Genre: Action & Adventure
    Artist: Dennis Gansel
    Name: Mechanic Resurrection

    MediaInfo

    General
    Complete name : /Users/imac/HandBrake/Mechanic- Resurrection (1080p HD).m4v
    Format : MPEG-4
    Codec ID : M4V
    File size : 6.41 GiB
    Duration : 1h 38mn
    Overall bit rate mode : Variable
    Overall bit rate : 9 309 Kbps
    Movie name : Mechanic Resurrection
    Performer : Dennis Gansel
    Director : Деннис Ганзель
    Actor : Джейсон Стэйтем / Джессика Альба / Томми Ли Джонс / Мишель Йео / Сэм Хэзелдайн / Джон Ченатьемпо / Тоби Эддингтон / Феми Элуфоводжо / Антео Квинтавалле / Ейяин Рхатха Пхонгам
    Screenplay by : Филип Шелби / Тони Мошер / Рэйчел Лонг
    Producer : Уильям Чартофф / Роберт Эрл / Джон Томпсон
    Production studio : Lionsgate
    Genre : Action & Adventure
    ContentType : Short Film
    Description : Артура Бишопа, давно оставившего свое криминальное ремесло, вынуждают снова вступить в игру. Чтобы похитители вернули его возлюбленную, он должен сделать то, что у него получается лучше всего: от него требуется совершить три убийства, идеально обставленных как несчастные случаи.
    Recorded date : UTC 2016-08-22 08:00:00
    Encoded date : UTC 2016-11-18 16:29:35
    Tagged date : UTC 2016-11-18 16:50:43
    Cover : Yes
    Rating : None
    Title/Sort : Mechanic Resurrection
    LongDescription : Артура Бишопа, давно оставившего свое криминальное ремесло, вынуждают снова вступить в игру. Чтобы похитители вернули его возлюбленную, он должен сделать то, что у него получается лучше всего: от него требуется совершить три убийства, идеально обставленных как несчастные случаи.
    AppleStoreCatalogID : 1142118992
    Vendor : Apple:vendor_id:2016-837525
    ContentRating : mpaa|R|400|Rated R for violence throughout and language.
    Video #1
    ID : 1
    Format : AVC
    Format/Info : Advanced Video Codec
    Format profile : High@L4
    Format settings, CABAC : Yes
    Format settings, ReFrames : 4 frames
    Codec ID : avc1
    Codec ID/Info : Advanced Video Coding
    Duration : 1h 38mn
    Source duration : 1h 38mn
    Bit rate : 8 000 Kbps
    Width : 1 920 pixels
    Height : 800 pixels
    Display aspect ratio : 2.40:1
    Frame rate mode : Variable
    Frame rate : 23.976 fps
    Minimum frame rate : 23.974 fps
    Maximum frame rate : 23.981 fps
    Color space : YUV
    Chroma subsampling : 4:2:0
    Bit depth : 8 bits
    Scan type : Progressive
    Bits/(Pixel*Frame) : 0.217
    Stream size : 5.48 GiB (85%)
    Source stream size : 5.48 GiB (85%)
    Title : Main Program
    Writing library : x264 core 142 r2479 dd79a61
    Encoding settings : cabac=1 / ref=4 / deblock=1:-2:-2 / analyse=0x3:0x133 / me=umh / subme=10 / psy=1 / psy_rd=1.00:0.15 / mixed_ref=1 / me_range=32 / chroma_me=1 / trellis=2 / 8x8dct=1 / cqm=0 / deadzone=21,11 / fast_pskip=0 / chroma_qp_offset=-3 / threads=36 / lookahead_threads=6 / sliced_threads=0 / nr=0 / decimate=0 / interlaced=0 / bluray_compat=0 / constrained_intra=0 / bframes=16 / b_pyramid=2 / b_adapt=2 / b_bias=0 / direct=3 / weightb=1 / open_gop=0 / weightp=2 / keyint=240 / keyint_min=24 / scenecut=40 / intra_refresh=0 / rc_lookahead=60 / rc=2pass / mbtree=1 / bitrate=8000 / ratetol=1.0 / qcomp=0.70 / qpmin=0 / qpmax=69 / qpstep=4 / cplxblur=20.0 / qblur=0.5 / vbv_maxrate=25000 / vbv_bufsize=25000 / nal_hrd=none / filler=0 / ip_ratio=1.40 / aq=1:1.00
    Language : English
    Encoded date : UTC 2016-11-18 16:29:35
    Tagged date : UTC 2016-11-18 16:29:47
    Color range : Limited
    Color primaries : BT.709
    Transfer characteristics : BT.709
    Matrix coefficients : BT.709
    Video #2
    ID : 9
    Format : JPEG
    Codec ID : jpeg
    Duration : 1h 38mn
    Bit rate mode : Variable
    Bit rate : 981 bps
    Width : 640 pixels
    Height : 266 pixels
    Display aspect ratio : 2.40:1
    Frame rate mode : Variable
    Frame rate : 0.003 fps
    Minimum frame rate : 0.002 fps
    Maximum frame rate : 0.004 fps
    Color space : YUV
    Chroma subsampling : 4:2:0
    Bit depth : 8 bits
    Compression mode : Lossy
    Bits/(Pixel*Frame) : 1.921
    Stream size : 639 KiB (0%)
    Title : Chapter Images
    Language : English
    Encoded date : UTC 2016-11-18 16:29:55
    Tagged date : UTC 2016-11-18 16:29:55
    Audio #1
    ID : 2
    Format : AAC
    Format/Info : Advanced Audio Codec
    Format profile : LC
    Codec ID : 40
    Duration : 1h 38mn
    Bit rate mode : Variable
    Bit rate : 157 Kbps
    Maximum bit rate : 244 Kbps
    Channel(s) : 2 channels
    Channel positions : Front: L R
    Sampling rate : 48.0 KHz
    Compression mode : Lossy
    Stream size : 111 MiB (2%)
    Title : Russian Stereo
    Language : Russian
    Encoded date : UTC 2016-11-18 16:29:35
    Tagged date : UTC 2016-11-18 16:29:47
    Audio #2
    ID : 3
    Format : AAC
    Format/Info : Advanced Audio Codec
    Format profile : LC
    Codec ID : 40
    Duration : 1h 38mn
    Bit rate mode : Variable
    Bit rate : 159 Kbps
    Maximum bit rate : 226 Kbps
    Channel(s) : 2 channels
    Channel positions : Front: L R
    Sampling rate : 48.0 KHz
    Compression mode : Lossy
    Stream size : 112 MiB (2%)
    Title : English Stereo
    Language : English
    Encoded date : UTC 2016-11-18 16:29:35
    Tagged date : UTC 2016-11-18 16:29:48
    Audio #3
    ID : 4
    Format : AC-3
    Format/Info : Audio Coding 3
    Mode extension : CM (complete main)
    Format settings, Endianness : Big
    Codec ID : ac-3
    Duration : 1h 38mn
    Bit rate mode : Constant
    Bit rate : 384 Kbps
    Channel(s) : 6 channels
    Channel positions : Front: L C R, Side: L R, LFE
    Sampling rate : 48.0 KHz
    Bit depth : 16 bits
    Compression mode : Lossy
    Stream size : 271 MiB (4%)
    Title : Russian DD 5.1
    Language : Russian
    Encoded date : UTC 2016-11-18 16:29:35
    Tagged date : UTC 2016-11-18 16:29:43
    Audio #4
    ID : 5
    Format : AC-3
    Format/Info : Audio Coding 3
    Mode extension : CM (complete main)
    Format settings, Endianness : Big
    Codec ID : ac-3
    Duration : 1h 38mn
    Bit rate mode : Constant
    Bit rate : 640 Kbps
    Channel(s) : 6 channels
    Channel positions : Front: L C R, Side: L R, LFE
    Sampling rate : 48.0 KHz
    Bit depth : 16 bits
    Compression mode : Lossy
    Stream size : 452 MiB (7%)
    Title : English DD 5.1
    Language : English
    Encoded date : UTC 2016-11-18 16:29:35
    Tagged date : UTC 2016-11-18 16:29:43
    Text #1
    ID : 6
    Format : Timed Text
    Muxing mode : sbtl
    Codec ID : tx3g
    Duration : 1h 34mn
    Bit rate mode : Variable
    Bit rate : 48 bps
    Stream size : 32.8 KiB (0%)
    Title : Russian full
    Language : Russian
    Encoded date : UTC 2016-11-18 16:29:35
    Tagged date : UTC 2016-11-18 16:29:35
    Text #2
    ID : 7
    Format : Timed Text
    Muxing mode : sbtl
    Codec ID : tx3g
    Duration : 1h 34mn
    Bit rate mode : Variable
    Bit rate : 34 bps
    Stream size : 23.6 KiB (0%)
    Title : English full
    Language : English
    Encoded date : UTC 2016-11-18 16:29:35
    Tagged date : UTC 2016-11-18 16:29:35
    Menu #1
    00:00:00.000 : Chapter 1
    00:06:35.020 : Chapter 2
    00:11:51.419 : Chapter 3
    00:18:31.360 : Chapter 4
    00:26:04.980 : Chapter 5
    00:31:57.624 : Chapter 6
    00:38:31.351 : Chapter 7
    00:43:35.780 : Chapter 8
    00:49:23.294 : Chapter 9
    00:54:19.923 : Chapter 10
    01:00:09.064 : Chapter 11
    01:05:50.530 : Chapter 12
    01:10:25.513 : Chapter 13
    01:14:51.570 : Chapter 14
    01:21:04.151 : Chapter 15
    01:31:37.992 : Chapter 16
    Menu #2
    ID : 8
    Codec ID : text
    Duration : 1h 38mn
    Language : English
    Encoded date : UTC 2016-11-18 16:29:48
    Tagged date : UTC 2016-11-18 16:29:48
    00:00:00.000 : Chapter 1
    00:06:35.020 : Chapter 2
    00:11:51.419 : Chapter 3
    00:18:31.360 : Chapter 4
    00:26:04.980 : Chapter 5
    00:31:57.624 : Chapter 6
    00:38:31.351 : Chapter 7
    00:43:35.780 : Chapter 8
    00:49:23.294 : Chapter 9
    00:54:19.923 : Chapter 10
    01:00:09.064 : Chapter 11
    01:05:50.530 : Chapter 12
    01:10:25.513 : Chapter 13
    01:14:51.570 : Chapter 14
    01:21:04.151 : Chapter 15
    01:31:37.992 : Chapter 16
    Bit rate mode : VBR

    x264 лог

    x264 [info]: frame I:1008  Avg QP:14.54  size:205488
    x264 [info]: frame P:41112 Avg QP:17.57  size: 67565
    x264 [info]: frame B:99793 Avg QP:18.42  size: 29094
    x264 [info]: consecutive B-frames:  7.3%  7.6% 17.2% 17.9% 16.3% 23.4%  4.9%  1.0%  1.3%  1.0%  0.7%  0.3%  0.4%  0.3%  0.1%  0.1%  0.2%
    x264 [info]: mb I  I16..4: 12.5% 73.8% 13.7%
    x264 [info]: mb P  I16..4:  3.7% 21.4%  1.8%  P16..4: 38.6% 17.2%  9.6%  0.4%  0.1%    skip: 7.3%
    x264 [info]: mb B  I16..4:  0.3%  2.1%  0.2%  B16..8: 40.6% 11.8%  2.7%  direct: 8.9%  skip:33.5%  L0:41.8% L1:45.1% BI:13.1%
    x264 [info]: 8x8 transform intra:79.5% inter:61.4%
    x264 [info]: direct mvs  spatial:99.0% temporal:1.0%
    x264 [info]: coded y,uvDC,uvAC intra: 81.6% 79.1% 56.9% inter: 29.0% 29.2% 12.7%
    x264 [info]: i16 v,h,dc,p: 26% 13% 13% 49%
    x264 [info]: i8 v,h,dc,ddl,ddr,vr,hd,vl,hu: 10% 11% 11%  9% 12% 11% 12% 11% 13%
    x264 [info]: i4 v,h,dc,ddl,ddr,vr,hd,vl,hu:  9% 10%  6% 10% 15% 13% 14% 10% 13%
    x264 [info]: i8c dc,h,v,p: 45% 23% 18% 15%
    x264 [info]: Weighted P-Frames: Y:2.4% UV:1.4%
    x264 [info]: ref P L0: 55.8%  9.2% 23.8%  9.0%  2.2%  0.0%
    x264 [info]: ref B L0: 85.3% 12.2%  2.5%
    x264 [info]: ref B L1: 92.5%  7.5%
    x264 [info]: kb/s:7958.47

    Скриншоты

    -

    Релиз подготовлен для просмотра на Apple TV, iPad, iPhone, iPod Touch.
    Для просмотра данного релиза на компьютере с ОС Windows рекомендуется использовать VLC media player
    Скачать .torrent

    Скачать торрент-файл бесплатно и на максимальной скорости!

    Как скачивать? · Что такое торрент? · Рейтинг и ограничения

    !ВНИМАНИЕ!
    Сайт не распространяет и не хранит электронные версии произведений, а занимается лишь лишь предоставлением доступа к создаваемому пользователями каталогу ссылок на торрент-файлы, которые содержат только списки хеш-сумм, убедительная просьба с жалобами обращаться напрямую к пользователю. Файлы для обмена на трекере предоставлены пользователями сайта, и администрация не несёт ответственности за их содержание. Просьба не заливать файлы, защищенные авторскими правами, а также файлы нелегального содержания!


    _________________
    [Профиль] [ЛС]
    Показать сообщения:    
    Ответить на тему

    Текущее время: Сегодня, в 00:25

    Часовой пояс: GMT + 2



    Вы не можете начинать темы
    Вы не можете отвечать на сообщения
    Вы не можете редактировать свои сообщения
    Вы не можете удалять свои сообщения
    Вы не можете голосовать в опросах
    Вы не можете прикреплять файлы к сообщениям
    Вы не можете скачивать файлы