BitTorrentTracker PerecTracker.org
BitTorrentTracker PerecTracker.org
    
Регистрация  ·  Вход
 
 · 
Забыли пароль?

  • Спецслужбы / Sluzby specjalne / Sluzby specjalne / Secret Wars (Патрик Вега / Patryk Vega) [2014, Польша, триллер, драма, боевик, криминал, WEB-DLRip-AVC] DVO (DeadSno&den904) + Original (Pol) + Subs (Eng)

    Ответить на тему
     
    Автор Сообщение

    Light

    Создавать темы 18-Ноя-2016 01:45

           

    [Цитировать]

    Спецслужбы
    Służby specjalne

    Страна: Польша
    Жанр: триллер, драма, боевик, криминал
    Год выпуска: 2014
    Продолжительность: 01:50:28
    Перевод : Любительский (двухголосый закадровый) (DeadSno&den904)
    Cубтитры: английские
    Оригинальная аудиодорожка: польский
    Режиссер: Патрик Вега / Patryk Vega
    В ролях: Ольга Болондзь / Olga Bołądź, Януш Хабёр / Janusz Chabior, Войцех Зелиньский / Wojciech Zieliński, Камилла Баар / Kamilla Baar, Анджей Грабовский / Andrzej Grabowski, Агата Кулеша / Agata Kulesza, Ян Фрыч / Jan Frycz, Эрик Любос / Eryk Lubos, Войцех Махницкий / Wojciech Machnicki, Альдона Янковска / Aldona Jankowska, Беата Кавка / Beata Kawka, Ян Юревич / Jan Jurewicz, Иоанна Ежевска / Joanna Jeżewska, Максимилиан Михасюв / Maksymilian Michasiów, Артур Овчарек / Artur Owczarek, Томаш Будыта / Tomasz Budyta, Паулина Климашевска / Paulina Klimaszewska, Рышард Клюге / Ryszard Kluge, Томаш Освециньский / Tomasz Oświeciński, Михал Шевчик / Michał Szewczyk, Катажина Чапля / Katarzyna Czapla, Мария Энгеле / Maria Engele, Дорота Фурмановска / Dorota Fórmanowska
    Описание: В 2006 году Военная Информационная Служба (ВИС) Польши, отвечающая за военную разведку и контрразведку, была упразднена и разделена на две отдельные спецслужбы. Многие сотрудники, обладающие весьма специфическими знаниями и навыками, оказались выброшенными на улицу. Бывший шеф ВИС предлагает нескольким таким сотрудникам поступить на службу в тайное подразделение, из которого впоследствии должна вырасти специальная служба, отвечающая всем невоенным внутренним нуждам государства и подчиняющаяся определённым политическим кругам, желающим поставить своего человека во главе страны. Методы, используемые для достижения цели, рамками закона не ограничиваются.
    Доп. информация: На русский язык фильм перевёл Pan Professor, озвучку выполнили DeadSno и den904.

    Sample
    Тип релиза: WEB-DLRip-AVC (исх. Sluzby.specjalne.2014.PL.720p.WEB-DL)
    Контейнер: MKV
    Видеокодек: H264
    Аудиокодек: AC3
    Видео: 1024x432 (2,40:1), 25 fps, 2390 kbps, 0.216 bit/pixel
    Аудио 1: 48 kHz, AC3 Dolby Digital, 2 ch, 192 kbps - RUS
    Аудио 2: 48 kHz, AC3 Dolby Digital, 2 ch, 192 kbps - PL
    Формат субтитров: softsub (SRT)

    МедиаИнфо

    Общее
    Уникальный идентификатор : 222158612249322013952168645600725976199 (0xA722313F62E4BDA9B799C799B8344487)
    Полное имя : Sluzby.specjalne.2014.DVO.PL.subEN.WEB-DLRip.mkv
    Формат : Matroska
    Версия формата : Version 2
    Размер файла : 2,14 Гбайт
    Продолжительность : 1 ч. 50 м.
    Общий поток : 2775 Кбит/сек
    Дата кодирования : UTC 2016-11-16 11:35:33
    Программа кодирования : mkvmerge v2.9.8 ('C'est le bon') built on Aug 13 2009 12:49:06
    Библиотека кодирования : libebml v0.7.7 + libmatroska v0.8.1
    Видео
    Идентификатор : 1
    Формат : AVC
    Формат/Информация : Advanced Video Codec
    Профиль формата : High@L4.1
    Параметр CABAC формата : Да
    Параметр ReFrames формата : 16 кадров
    Идентификатор кодека : V_MPEG4/ISO/AVC
    Продолжительность : 1 ч. 50 м.
    Битрейт : 2390 Кбит/сек
    Ширина : 1024 пикселя
    Высота : 432 пикселя
    Соотношение сторон : 2,40:1
    Режим частоты кадров : Постоянный
    Частота кадров : 25,000 кадров/сек
    Цветовое пространство : YUV
    Субдискретизация насыщенности : 4:2:0
    Битовая глубина : 8 бит
    Тип развёртки : Прогрессивная
    Бит/(Пиксели*Кадры) : 0.216
    Размер потока : 1,80 Гбайт (84%)
    Библиотека кодирования : x264 core 148 r2638 7599210
    Настройки программы : cabac=1 / ref=16 / deblock=1:-3:-3 / analyse=0x3:0x133 / me=umh / subme=10 / psy=1 / psy_rd=1.05:0.10 / mixed_ref=1 / me_range=32 / chroma_me=1 / trellis=2 / 8x8dct=1 / cqm=0 / deadzone=21,11 / fast_pskip=0 / chroma_qp_offset=-3 / threads=6 / lookahead_threads=1 / sliced_threads=0 / nr=0 / decimate=0 / interlaced=0 / bluray_compat=0 / constrained_intra=0 / bframes=14 / b_pyramid=2 / b_adapt=2 / b_bias=0 / direct=3 / weightb=1 / open_gop=0 / weightp=2 / keyint=250 / keyint_min=25 / scenecut=40 / intra_refresh=0 / rc_lookahead=60 / rc=2pass / mbtree=1 / bitrate=2390 / ratetol=1.0 / qcomp=0.70 / qpmin=10 / qpmax=51 / qpstep=4 / cplxblur=20.0 / qblur=0.5 / vbv_maxrate=62500 / vbv_bufsize=78125 / nal_hrd=none / filler=0 / ip_ratio=1.40 / aq=1:1.00
    Язык : English
    Default : Нет
    Forced : Нет
    Аудио #1
    Идентификатор : 2
    Формат : AC-3
    Формат/Информация : Audio Coding 3
    Расширение режима : CM (complete main)
    Параметр Endianness формата : Big
    Идентификатор кодека : A_AC3
    Продолжительность : 1 ч. 50 м.
    Вид битрейта : Постоянный
    Битрейт : 192 Кбит/сек
    Каналы : 2 канала
    Расположение каналов : Front: L R
    Частота : 48,0 КГц
    Битовая глубина : 16 бит
    Метод сжатия : С потерями
    Размер потока : 152 Мбайт (7%)
    Заголовок : DVO (DeadSno&Den904) по переводу Professor
    Язык : Russian
    Default : Нет
    Forced : Нет
    Аудио #2
    Идентификатор : 3
    Формат : AC-3
    Формат/Информация : Audio Coding 3
    Расширение режима : CM (complete main)
    Параметр Endianness формата : Big
    Идентификатор кодека : A_AC3
    Продолжительность : 1 ч. 50 м.
    Вид битрейта : Постоянный
    Битрейт : 192 Кбит/сек
    Каналы : 2 канала
    Расположение каналов : Front: L R
    Частота : 48,0 КГц
    Битовая глубина : 16 бит
    Метод сжатия : С потерями
    Размер потока : 152 Мбайт (7%)
    Язык : Polish
    Default : Нет
    Forced : Нет
    Текст
    Идентификатор : 4
    Формат : UTF-8
    Идентификатор кодека : S_TEXT/UTF8
    Идентификатор кодека/Информация : UTF-8 Plain Text
    Язык : English
    Default : Нет
    Forced : Нет
    Кадры из фильма

    fastpic



    lostpic



    imagebam



    Скачать .torrent

    Скачать торрент-файл бесплатно и на максимальной скорости!

    Как скачивать? · Что такое торрент? · Рейтинг и ограничения

    !ВНИМАНИЕ!
    Сайт не распространяет и не хранит электронные версии произведений, а занимается лишь лишь предоставлением доступа к создаваемому пользователями каталогу ссылок на торрент-файлы, которые содержат только списки хеш-сумм, убедительная просьба с жалобами обращаться напрямую к пользователю. Файлы для обмена на трекере предоставлены пользователями сайта, и администрация не несёт ответственности за их содержание. Просьба не заливать файлы, защищенные авторскими правами, а также файлы нелегального содержания!


    _________________
    [Профиль] [ЛС]
    Показать сообщения:    
    Ответить на тему

    Текущее время: Сегодня, в 18:31

    Часовой пояс: GMT + 2



    Вы не можете начинать темы
    Вы не можете отвечать на сообщения
    Вы не можете редактировать свои сообщения
    Вы не можете удалять свои сообщения
    Вы не можете голосовать в опросах
    Вы не можете прикреплять файлы к сообщениям
    Вы не можете скачивать файлы