BitTorrentTracker PerecTracker.org
BitTorrentTracker PerecTracker.org
    
Регистрация  ·  Вход
 
 · 
Забыли пароль?

  • Тартюф (Ян Фрид) [1992, музыкальная комедия, DVDRip-AVC]

    Ответить на тему
     
    Автор Сообщение

    Flirldrerve

    Создавать темы 17-Ноя-2016 21:35

           

    [Цитировать]

    Тартюф-Жанр: музыкальная комедия
    Год выпуска: 1992
    Продолжительность: 01:34:23
    Субтитры: английские-Режиссёр: Ян Фрид-В ролях:
    Михаил Боярский, Игорь Дмитриев, Ирина Муравьева, Лариса Удовиченко, Владислав Стржельчик, Анна Самохина, Игорь Скляр, Виктория Горшенина, Герман Орлов, Раиса Максимова, Валентина Кособуцкая
    Описание:
    Музыкальная комедия о похождениях лицемера, имя которого стало нарицательным. Сохраняя маску святости, Тартюф втирается в доверие и предает, обманывает и соблазняет. Последний фильм замечательного режиссера Яна Фрида.-Исходник | Сэмпл | -Качество видео: DVDRip-AVC, благодарю gjctqljy за исходник.
    Формат видео: MKV
    Видео: x264: (High@L4.1); 720@785x572 25.000 fps; Display aspect ratio: 1.372:1; 2008 Kbps
    Аудио: Оригинал: AC-3; 16 bits 48 Khz; 2.0ch 192 Kbps; CBR
    Формат субтитров: softsub (SRT)

    MediaInfo

    avs [info]: 720x572p 12:11 @ 25/1 fps (cfr)
    x264 [info]: using SAR=12/11
    x264 [info]: profile High, level 4.1
    x264 [info]: frame I:733 Avg QP:17.56 size: 66888
    x264 [info]: frame P:31812 Avg QP:20.52 size: 23935
    x264 [info]: frame B:109040 Avg QP:22.07 size: 5603
    x264 [info]: consecutive B-frames: 1.6% 2.6% 8.9% 25.6% 22.1% 33.6% 3.8% 1.0% 0.6% 0.4%
    x264 [info]: ref P L0: 46.6% 17.6% 14.3% 4.2% 3.8% 2.5% 2.6% 1.3% 1.4% 1.0% 1.1% 0.8% 0.9% 0.7% 0.8% 0.5%
    x264 [info]: ref B L0: 87.7% 6.2% 1.8% 1.0% 0.7% 0.6% 0.5% 0.3% 0.2% 0.2% 0.2% 0.2% 0.2% 0.1% 0.1%
    x264 [info]: ref B L1: 97.8% 2.2%
    x264 [info]: kb/s:2007.91--General
    Unique ID : 196779781035530771540280445148174737733 (0x940A6843266D008AA0F184E138BFE145)
    Complete name : Тартюф.1992.mkv
    Format : Matroska
    Format version : Version 2
    File size : 1.45 GiB
    Duration : 1h 34mn
    Overall bit rate : 2 202 Kbps
    Movie name : «Тартюф»
    Encoded date : UTC 2016-11-17 08:05:50
    Writing application : mkvmerge v7.8.0 ('River Man') 32bit built on Mar 27 2015 16:18:02
    Writing library : libebml v1.3.1 + libmatroska v1.4.2
    Comment : DVDRip-AVC
    Originally released : November 16th 2016
    Encoded by : george$t®
    Video
    ID : 1
    Format : AVC
    Format/Info : Advanced Video Codec
    Format profile : High@L4.1
    Format settings, CABAC : Yes
    Format settings, ReFrames : 16 frames
    Codec ID : V_MPEG4/ISO/AVC
    Duration : 1h 34mn
    Bit rate : 2 008 Kbps
    Width : 720 pixels
    Height : 572 pixels
    Display aspect ratio : 1.372
    Original display aspect rat : 1.373
    Frame rate mode : Constant
    Frame rate : 25.000 fps
    Color space : YUV
    Chroma subsampling : 4:2:0
    Bit depth : 8 bits
    Scan type : Progressive
    Bits/(Pixel*Frame) : 0.195
    Stream size : 1.30 GiB (89%)
    Title : Тартюф.1992
    Writing library : x264 core 148 r2721kMod 72d53ab
    Encoding settings : cabac=1 / ref=16 / deblock=1:-2:-1 / analyse=0x3:0x133 / me=umh / subme=10 / psy=1 / fade_compensate=0.00 / psy_rd=1.00:0.00 / mixed_ref=1 / me_range=32 / chroma_me=1 / trellis=2 / 8x8dct=1 / cqm=0 / deadzone=21,11 / fast_pskip=0 / chroma_qp_offset=-2 / threads=12 / lookahead_threads=2 / sliced_threads=0 / nr=0 / decimate=0 / interlaced=0 / bluray_compat=0 / constrained_intra=0 / fgo=0 / bframes=9 / b_pyramid=2 / b_adapt=2 / b_bias=0 / direct=3 / weightb=1 / open_gop=0 / weightp=2 / keyint=250 / keyint_min=25 / scenecut=40 / intra_refresh=0 / rc_lookahead=60 / rc=2pass / mbtree=0 / bitrate=2008 / ratetol=1.0 / qcomp=0.65 / qpmin=0 / qpmax=69 / qpstep=4 / cplxblur=20.0 / qblur=0.5 / vbv_maxrate=62500 / vbv_bufsize=78125 / nal_hrd=none / filler=0 / ip_ratio=1.40 / pb_ratio=1.30 / aq=3:0.80
    Language : Russian
    Default : Yes
    Forced : No
    Color primaries : BT.601 PAL
    Transfer characteristics : BT.470 System B, BT.470 System G
    Matrix coefficients : BT.601
    Color range : Limited
    Audio
    ID : 2
    Format : AC-3
    Format/Info : Audio Coding 3
    Mode extension : CM (complete main)
    Format settings, Endianness : Big
    Codec ID : A_AC3
    Duration : 1h 34mn
    Bit rate mode : Constant
    Bit rate : 192 Kbps
    Channel(s) : 2 channels
    Channel positions : Front: L R
    Sampling rate : 48.0 KHz
    Bit depth : 16 bits
    Compression mode : Lossy
    Stream size : 130 MiB (9%)
    Title : Оригинал: AC-3; 16 bits 48 Khz; 2.0ch 192 Kbps; CBR
    Language : Russian
    Default : Yes
    Forced : No
    Text
    ID : 3
    Format : UTF-8
    Codec ID : S_TEXT/UTF8
    Codec ID/Info : UTF-8 Plain Text
    Title : Субтитры английские
    Language : English
    Default : No
    Forced : No
    Menu
    00:00:00.000 : ru:Отъезд со скандалом
    00:09:44.040 : ru:Оргон - слепец
    00:16:28.440 : ru:Несчастная невеста
    00:25:26.000 : ru:Ссора и примирение
    00:32:03.280 : ru:Святоша - лицемер
    00:42:47.680 : ru:Спектакль Тартюфа
    00:54:41.840 : ru:Завещание
    01:01:12.600 : ru:Замысел Эльмиры
    01:08:40.600 : ru:Разоблачение
    01:18:22.000 : ru:Тартюф без маски
    01:26:56.960 : ru:Известие об аресте
    01:30:04.840 : ru:"Тартюфы не умрут..."

    Скриншоты

    Доп. инфо / сравнение

    Рип с нереставрированного синего диска КП, присутствуют мелкие дефекты пленки. Со сравнением версий можно ознакомиться на видеообзоре: http://vobzor.com/page.php?id=597
    В реставрированной версии КП традиционно намудрил с яркостью / контрастностью и отчасти насыщенностью. Затемненные регионы в диапазоне глубокого черного, без сколько-нибудь различимых глазом деталей, полутени отсутствуют как класс. Манипулирование соответствующиими регуляторами плееров / телевизоров редко гарантирует восстановление комфортных кондиций для просмотра подобных исходников.Другими словами, часть деталей в кадре трудноразличима из-за переконтраста, а другая из-за пересвеченности. Ниже сравнение с асп рипом реставрированного трансфера КП.http://perectracker.org/http://perectracker.org/viewtopic.php?t=3023526
    http://screenshotcomparison.com/comparison/190949
    Скачать .torrent

    Скачать торрент-файл бесплатно и на максимальной скорости!

    Как скачивать? · Что такое торрент? · Рейтинг и ограничения

    !ВНИМАНИЕ!
    Сайт не распространяет и не хранит электронные версии произведений, а занимается лишь лишь предоставлением доступа к создаваемому пользователями каталогу ссылок на торрент-файлы, которые содержат только списки хеш-сумм, убедительная просьба с жалобами обращаться напрямую к пользователю. Файлы для обмена на трекере предоставлены пользователями сайта, и администрация не несёт ответственности за их содержание. Просьба не заливать файлы, защищенные авторскими правами, а также файлы нелегального содержания!


    _________________
    [Профиль] [ЛС]
    Показать сообщения:    
    Ответить на тему

    Текущее время: Сегодня, в 20:09

    Часовой пояс: GMT + 2



    Вы не можете начинать темы
    Вы не можете отвечать на сообщения
    Вы не можете редактировать свои сообщения
    Вы не можете удалять свои сообщения
    Вы не можете голосовать в опросах
    Вы не можете прикреплять файлы к сообщениям
    Вы не можете скачивать файлы