BitTorrentTracker PerecTracker.org
BitTorrentTracker PerecTracker.org
    
Регистрация  ·  Вход
 
 · 
Забыли пароль?

  • Суперплохие (Дмитрий Суворов) [2016, Комедия, WEB-DLRip]

    Ответить на тему
     
    Автор Сообщение

    Flirldrerve

    Создавать темы 17-Ноя-2016 21:35

           

    [Цитировать]

    Суперплохие
    Жанр: Комедия
    Год выпуска: 2016
    Продолжительность: 01:14:22
    Режиссёр: Дмитрий Суворов
    В ролях: Данила Якушев, Анна Чиповская, Александр Соколовский, Александр Ревва, Ян Цапник, Александр Ляпин, Александр Цой, Карина Зверева, Кирилл Каганович, Валентина Мазунина
    Описание: На что ты готов ради своей девушки?… А если она проститутка во вьетнамском борделе? А если его владелец хочет вышибить тебе мозги? А если ты должен кучу бабок местному нарко-барыге? Главному герою Диме предстоит провернуть аферу всей его жизни. Но как это сделать, когда тебя окружают самые неподходящие для этого люди? Они — суперплохие герои нашего времени. Встречайте команду мечты: Сексмашина, Цыпочка, Барыга, Стерва, Выживший, Ниндзя и Гопник.
    Сэмпл: http://multi-up.com/1127373
    Качество видео: WEB-DLRip
    Формат видео: AVI
    Видео: 688x288 (2.39:1), 24.000 fps, XviD MPEG-4 ~1261 kbps avg, 0.27 bit/pixel
    Аудио: 48 kHz, MPEG Layer 3, 2 ch, ~128.00 kbps avg

    MediaInfo

    Формат : AVI
    Формат/Информация : Audio Video Interleave
    Размер файла : 744 Мбайт
    Продолжительность : 1 ч. 14 м.
    Общий поток : 1399 Кбит/сек
    Программа кодирования : VirtualDubMod 1.5.10.3 (build 2550/release)
    Библиотека кодирования : VirtualDubMod build 2550/release
    Видео
    Идентификатор : 0
    Формат : MPEG-4 Visual
    Профиль формата : Advanced Simple@L5
    Параметр BVOP формата : 2
    Параметр QPel формата : Нет
    Параметр GMC формата : Без точки перехода
    Параметр матрицы формата : Выборочная
    Идентификатор кодека : XVID
    Идентификатор кодека/Подсказка : XviD
    Продолжительность : 1 ч. 14 м.
    Битрейт : 1262 Кбит/сек
    Ширина : 688 пикселей
    Высота : 288 пикселей
    Соотношение сторон : 2,40:1
    Частота кадров : 24,000 кадра/сек
    Цветовое пространство : YUV
    Субдискретизация насыщенности : 4:2:0
    Битовая глубина : 8 бит
    Тип развёртки : Прогрессивная
    Метод сжатия : С потерями
    Бит/(Пиксели*Кадры) : 0.265
    Размер потока : 671 Мбайт (90%)
    Библиотека кодирования : XviD 73
    Аудио
    Идентификатор : 1
    Формат : MPEG Audio
    Версия формата : Version 1
    Профиль формата : Layer 3
    Режим : Joint stereo
    Расширение режима : MS Stereo
    Идентификатор кодека : 55
    Идентификатор кодека/Подсказка : MP3
    Продолжительность : 1 ч. 14 м.
    Вид битрейта : Постоянный
    Битрейт : 128 Кбит/сек
    Каналы : 2 канала
    Частота : 48,0 КГц
    Метод сжатия : С потерями
    Размер потока : 68,1 Мбайт (9%)
    Выравнивание : Соединение по промежуткам
    Продолжительность промежутка : 42 мс. (1,00 видеокадр)
    Время предзагрузки промежутка : 504 мс.

    Скриншоты

    Скачать .torrent

    Скачать торрент-файл бесплатно и на максимальной скорости!

    Как скачивать? · Что такое торрент? · Рейтинг и ограничения

    !ВНИМАНИЕ!
    Сайт не распространяет и не хранит электронные версии произведений, а занимается лишь лишь предоставлением доступа к создаваемому пользователями каталогу ссылок на торрент-файлы, которые содержат только списки хеш-сумм, убедительная просьба с жалобами обращаться напрямую к пользователю. Файлы для обмена на трекере предоставлены пользователями сайта, и администрация не несёт ответственности за их содержание. Просьба не заливать файлы, защищенные авторскими правами, а также файлы нелегального содержания!


    _________________
    [Профиль] [ЛС]
    Показать сообщения:    
    Ответить на тему

    Текущее время: Сегодня, в 16:39

    Часовой пояс: GMT + 2



    Вы не можете начинать темы
    Вы не можете отвечать на сообщения
    Вы не можете редактировать свои сообщения
    Вы не можете удалять свои сообщения
    Вы не можете голосовать в опросах
    Вы не можете прикреплять файлы к сообщениям
    Вы не можете скачивать файлы