BitTorrentTracker PerecTracker.org
BitTorrentTracker PerecTracker.org
    
Регистрация  ·  Вход
 
 · 
Забыли пароль?

  • Тайная жизнь домашних животных / The Secret Life of Pets (Крис Рено / Chris Renaud ) [2016, США, Мультфильм, комедия, приключения, семейный, BDRip, HD (720p)] DUB + Original + sub (rus, eng)

    Ответить на тему
     
    Автор Сообщение

    Flirldrerve

    Создавать темы 17-Ноя-2016 21:35

           

    [Цитировать]

    Тайная жизнь домашних животных / The Secret Life of Pets
    «Думаете, они ждут вас у порога весь день?»
    -Год выпуска: 2016
    Страна: США
    Жанр: Мультфильм, комедия, приключения, семейный
    Продолжительность: 01:26:27
    Перевод: Дублированный (iTunes)
    Оригинальная аудиодорожка: Есть
    Cубтитры: Русские форсированные, Английские
    Режиссёр: Крис Рено
    Сценарий: Синко Пол, Кен Даурио, Брайан Линч
    Продюсер: Джанет Хили, Бретт Хоффман, Кристофер Меледандри
    Композитор: Александр Депла
    Художник: Эрик Гуильон, Колин Стимпсон
    Монтаж: Кен Шретцман
    В ролях: Луис С.К., Эрик Стоунстрит, Кевин Харт, Дженни Слейт, Элли Кемпер, Альберт Брукс, Лэйк Белл, Дэна Карви, Хэннибал Бёресс, Бобби Мойнахан
    Бюджет: $75 000 000
    Сборы в США: $367 243 265
    Сборы в мире: + $505 525 621 = $872 768 886
    Сборы в России: $34 343 331
    Мировая премьера: 16 июня 2016
    Премьера (РФ): 18 августа 2016, «UPI»
    Описание: Что делают домашние животные пока хозяева пропадают на работе? С тоской смотрят в окно? Смиренно дремлют на коврике у двери? Как бы не так. Они ведут свою тайную жизнь.-Качество исходника: BDRemux (HDClub)
    Качество: BDRip
    Тип: HD (720p)
    Контейнер: M4V
    Видео: H.264, 1280x690, 1.85:1, 3 500 Kbps, 23.976 fps
    Аудио 1: Русский/Дублированный (iTunes), AAC / 2.0 / 160 Kbps / 48.0 KHz
    Аудио 2: Английский/Оригинальная дорожка , AAC / 2.0 / 160 Kbps / 48.0 KHz
    Аудио 3: Русский/Дублированный (iTunes), AC-3 / 5.1 / 384 Kbps / 48.0 KHz
    Аудио 4: Английский/Оригинальная дорожка , AC-3 / 5.1 / 640 Kbps / 48.0 KHz
    Субтитры 1: Русские форсированные
    Субтитры 2: Английские полные
    -

    iTunes Meta Tags

    Sort Name: Secret Life of Pets
    XID: Apple:vendor_id:2016-743088
    contentID: 1127896563
    Copyright: © 2016 Universal Studios. All Rights Reserved.
    Screenwriters: Синко Пол, Кен Даурио, Брайан Линч
    Producers: Джанет Хили, Бретт Хоффман, Кристофер Меледандри
    Director: Ярроу Чейни, Крис Рено
    Cast: Луис С.К., Эрик Стоунстрит, Кевин Харт, Дженни Слейт, Элли Кемпер, Альберт Брукс, Лэйк Белл, Дэна Карви, Хэннибал Бёресс, Бобби Мойнахан
    Studio: Universal Pictures
    Rating: 3
    Long Description: Что делают домашние животные пока хозяева пропадают на работе? С тоской смотрят в окно? Смиренно дремлют на коврике у двери? Как бы не так. Они ведут свою тайную жизнь.
    Description: Что делают домашние животные пока хозяева пропадают на работе? С тоской смотрят в окно? Смиренно дремлют на коврике у двери? Как бы не так. Они ведут свою тайную жизнь.
    Release Date: 2016-06-18T08:00:00Z
    Genre: Kids & Family
    Artist: Chris Renaud
    Name: The Secret Life of Pets

    MediaInfo

    General
    Complete name : /Users/imac/HandBrake/The Secret Life of Pets (720p HD).m4v
    Format : MPEG-4
    Codec ID : M4V
    File size : 2.93 GiB
    Duration : 1h 26mn
    Overall bit rate mode : Variable
    Overall bit rate : 4 849 Kbps
    Movie name : The Secret Life of Pets
    Performer : Chris Renaud
    Director : Ярроу Чейни / Крис Рено
    Actor : Луис С.К. / Эрик Стоунстрит / Кевин Харт / Дженни Слейт / Элли Кемпер / Альберт Брукс / Лэйк Белл / Дэна Карви / Хэннибал Бёресс / Бобби Мойнахан
    Screenplay by : Синко Пол / Кен Даурио / Брайан Линч
    Producer : Джанет Хили / Бретт Хоффман / Кристофер Меледандри
    Production studio : Universal Pictures
    Genre : Kids & Family
    ContentType : Short Film
    Description : Что делают домашние животные пока хозяева пропадают на работе? С тоской смотрят в окно? Смиренно дремлют на коврике у двери? Как бы не так. Они ведут свою тайную жизнь.
    Recorded date : UTC 2016-06-18 08:00:00
    Encoded date : UTC 2016-11-17 12:47:16
    Tagged date : UTC 2016-11-17 12:48:52
    Copyright : © 2016 Universal Studios. All Rights Reserved.
    Cover : Yes
    Rating : None
    Title/Sort : Secret Life of Pets
    LongDescription : Что делают домашние животные пока хозяева пропадают на работе? С тоской смотрят в окно? Смиренно дремлют на коврике у двери? Как бы не так. Они ведут свою тайную жизнь.
    HDVideo : Yes
    AppleStoreCatalogID : 1127896563
    Vendor : Apple:vendor_id:2016-743088
    ContentRating : mpaa|PG|200|
    Video #1
    ID : 1
    Format : AVC
    Format/Info : Advanced Video Codec
    Format profile : High@L3.1
    Format settings, CABAC : No
    Format settings, ReFrames : 3 frames
    Codec ID : avc1
    Codec ID/Info : Advanced Video Coding
    Duration : 1h 26mn
    Source duration : 1h 26mn
    Bit rate : 3 500 Kbps
    Width : 1 280 pixels
    Height : 690 pixels
    Display aspect ratio : 1.85:1
    Frame rate mode : Variable
    Frame rate : 23.976 fps
    Minimum frame rate : 23.974 fps
    Maximum frame rate : 23.981 fps
    Color space : YUV
    Chroma subsampling : 4:2:0
    Bit depth : 8 bits
    Scan type : Progressive
    Bits/(Pixel*Frame) : 0.165
    Stream size : 2.11 GiB (72%)
    Source stream size : 2.11 GiB (72%)
    Title : Main Program
    Writing library : x264 core 142 r2479 dd79a61
    Encoding settings : cabac=0 / ref=3 / deblock=1:-3:-3 / analyse=0x3:0x113 / me=umh / subme=9 / psy=1 / psy_rd=1.00:0.15 / mixed_ref=1 / me_range=32 / chroma_me=1 / trellis=0 / 8x8dct=1 / cqm=0 / deadzone=21,11 / fast_pskip=0 / chroma_qp_offset=-2 / threads=36 / lookahead_threads=3 / sliced_threads=0 / nr=0 / decimate=0 / interlaced=0 / bluray_compat=0 / constrained_intra=0 / bframes=3 / b_pyramid=0 / b_adapt=2 / b_bias=0 / direct=1 / weightb=0 / open_gop=0 / weightp=0 / keyint=240 / keyint_min=24 / scenecut=40 / intra_refresh=0 / rc_lookahead=40 / rc=2pass / mbtree=1 / bitrate=3500 / ratetol=1.0 / qcomp=0.65 / qpmin=0 / qpmax=69 / qpstep=4 / cplxblur=20.0 / qblur=0.5 / vbv_maxrate=9500 / vbv_bufsize=9500 / nal_hrd=none / filler=0 / ip_ratio=1.40 / aq=1:1.10
    Language : English
    Encoded date : UTC 2016-11-17 12:47:16
    Tagged date : UTC 2016-11-17 12:47:19
    Color range : Limited
    Color primaries : BT.709
    Transfer characteristics : BT.709
    Matrix coefficients : BT.709
    Video #2
    ID : 9
    Format : JPEG
    Codec ID : jpeg
    Duration : 1h 26mn
    Bit rate mode : Variable
    Bit rate : 2 109 bps
    Width : 640 pixels
    Height : 345 pixels
    Display aspect ratio : 1.85:1
    Frame rate mode : Variable
    Frame rate : 0.004 fps
    Minimum frame rate : 0.003 fps
    Maximum frame rate : 0.014 fps
    Color space : YUV
    Chroma subsampling : 4:2:0
    Bit depth : 8 bits
    Compression mode : Lossy
    Bits/(Pixel*Frame) : 2.388
    Stream size : 1.26 MiB (0%)
    Title : Chapter Images
    Language : English
    Encoded date : UTC 2016-11-17 12:47:49
    Tagged date : UTC 2016-11-17 12:47:50
    Audio #1
    ID : 2
    Format : AAC
    Format/Info : Advanced Audio Codec
    Format profile : LC
    Codec ID : 40
    Duration : 1h 26mn
    Bit rate mode : Variable
    Bit rate : 157 Kbps
    Maximum bit rate : 230 Kbps
    Channel(s) : 2 channels
    Channel positions : Front: L R
    Sampling rate : 48.0 KHz
    Compression mode : Lossy
    Stream size : 97.3 MiB (3%)
    Title : Russian Stereo
    Language : Russian
    Encoded date : UTC 2016-11-17 12:47:16
    Tagged date : UTC 2016-11-17 12:47:44
    Audio #2
    ID : 3
    Format : AAC
    Format/Info : Advanced Audio Codec
    Format profile : LC
    Codec ID : 40
    Duration : 1h 26mn
    Bit rate mode : Variable
    Bit rate : 158 Kbps
    Maximum bit rate : 244 Kbps
    Channel(s) : 2 channels
    Channel positions : Front: L R
    Sampling rate : 48.0 KHz
    Compression mode : Lossy
    Stream size : 97.9 MiB (3%)
    Title : English Stereo
    Language : English
    Encoded date : UTC 2016-11-17 12:47:16
    Tagged date : UTC 2016-11-17 12:47:44
    Audio #3
    ID : 4
    Format : AC-3
    Format/Info : Audio Coding 3
    Mode extension : CM (complete main)
    Format settings, Endianness : Big
    Codec ID : ac-3
    Duration : 1h 26mn
    Bit rate mode : Constant
    Bit rate : 384 Kbps
    Channel(s) : 6 channels
    Channel positions : Front: L C R, Side: L R, LFE
    Sampling rate : 48.0 KHz
    Bit depth : 16 bits
    Compression mode : Lossy
    Stream size : 237 MiB (8%)
    Title : Russian DD 5.1
    Language : Russian
    Encoded date : UTC 2016-11-17 12:47:16
    Tagged date : UTC 2016-11-17 12:47:44
    Audio #4
    ID : 5
    Format : AC-3
    Format/Info : Audio Coding 3
    Mode extension : CM (complete main)
    Format settings, Endianness : Big
    Codec ID : ac-3
    Duration : 1h 26mn
    Bit rate mode : Constant
    Bit rate : 640 Kbps
    Channel(s) : 6 channels
    Channel positions : Front: L C R, Side: L R, LFE
    Sampling rate : 48.0 KHz
    Bit depth : 16 bits
    Compression mode : Lossy
    Stream size : 396 MiB (13%)
    Title : English DD 5.1
    Language : English
    Encoded date : UTC 2016-11-17 12:47:16
    Tagged date : UTC 2016-11-17 12:47:44
    Text #1
    ID : 6
    Format : Timed Text
    Muxing mode : sbtl
    Codec ID : tx3g
    Duration : 1h 14mn
    Bit rate mode : Variable
    Bit rate : 1 bps
    Stream size : 673 Bytes (0%)
    Title : Russian forced
    Language : Russian
    Encoded date : UTC 2016-11-17 12:47:16
    Tagged date : UTC 2016-11-17 12:47:38
    Text #2
    ID : 7
    Format : Timed Text
    Muxing mode : sbtl
    Codec ID : tx3g
    Duration : 1h 26mn
    Bit rate mode : Variable
    Bit rate : 59 bps
    Stream size : 37.4 KiB (0%)
    Title : English full
    Language : English
    Encoded date : UTC 2016-11-17 12:47:16
    Tagged date : UTC 2016-11-17 12:47:43
    Menu #1
    00:00:00.000 : Chapter 1
    00:05:05.263 : Chapter 2
    00:09:24.147 : Chapter 3
    00:13:18.464 : Chapter 4
    00:18:03.165 : Chapter 5
    00:22:14.542 : Chapter 6
    00:28:51.939 : Chapter 7
    00:32:54.389 : Chapter 8
    00:36:55.922 : Chapter 9
    00:42:27.378 : Chapter 10
    00:44:46.851 : Chapter 11
    00:50:21.310 : Chapter 12
    00:54:45.491 : Chapter 13
    00:59:34.070 : Chapter 14
    01:02:36.294 : Chapter 15
    01:07:12.445 : Chapter 16
    01:13:06.924 : Chapter 17
    01:16:04.685 : Chapter 18
    01:18:48.140 : Chapter 19
    01:19:58.711 : Chapter 20
    Menu #2
    ID : 8
    Codec ID : text
    Duration : 1h 26mn
    Language : English
    Encoded date : UTC 2016-11-17 12:47:44
    Tagged date : UTC 2016-11-17 12:47:44
    00:00:00.000 : Chapter 1
    00:05:05.263 : Chapter 2
    00:09:24.147 : Chapter 3
    00:13:18.464 : Chapter 4
    00:18:03.165 : Chapter 5
    00:22:14.542 : Chapter 6
    00:28:51.939 : Chapter 7
    00:32:54.389 : Chapter 8
    00:36:55.922 : Chapter 9
    00:42:27.378 : Chapter 10
    00:44:46.851 : Chapter 11
    00:50:21.310 : Chapter 12
    00:54:45.491 : Chapter 13
    00:59:34.070 : Chapter 14
    01:02:36.294 : Chapter 15
    01:07:12.445 : Chapter 16
    01:13:06.924 : Chapter 17
    01:16:04.685 : Chapter 18
    01:18:48.140 : Chapter 19
    01:19:58.711 : Chapter 20
    Bit rate mode : VBR

    x264 лог

    x264 [info]: frame I:1196  Avg QP:15.81  size:129855
    x264 [info]: frame P:53596 Avg QP:18.40  size: 29405
    x264 [info]: frame B:69576 Avg QP:22.07  size:  7717
    x264 [info]: consecutive B-frames:  7.9% 38.7% 41.2% 12.2%
    x264 [info]: mb I  I16..4: 10.2% 50.9% 38.9%
    x264 [info]: mb P  I16..4:  2.9%  7.8%  3.8%  P16..4: 44.8% 16.9%  7.0%  0.0%  0.0%    skip:16.9%
    x264 [info]: mb B  I16..4:  0.4%  1.4%  0.8%  B16..8: 29.3%  6.7%  1.2%  direct: 2.4%  skip:57.9%  L0:35.6% L1:53.4% BI:11.0%
    x264 [info]: 8x8 transform intra:53.5% inter:47.7%
    x264 [info]: coded y,uvDC,uvAC intra: 73.3% 77.6% 49.3% inter: 17.6% 17.7% 9.8%
    x264 [info]: i16 v,h,dc,p: 33% 18%  4% 45%
    x264 [info]: i8 v,h,dc,ddl,ddr,vr,hd,vl,hu: 12% 11%  4% 10% 13% 13% 14% 11% 12%
    x264 [info]: i4 v,h,dc,ddl,ddr,vr,hd,vl,hu: 15% 13%  4%  9% 15% 14% 14%  9%  8%
    x264 [info]: i8c dc,h,v,p: 42% 23% 21% 14%
    x264 [info]: ref P L0: 76.0% 13.7% 10.3%
    x264 [info]: ref B L0: 81.1% 18.9%
    x264 [info]: kb/s:3498.13

    Скриншоты

    -

    Релиз подготовлен для просмотра на Apple TV, iPad, iPhone, iPod Touch.
    Для просмотра данного релиза на компьютере с ОС Windows рекомендуется использовать VLC media player
    Скачать .torrent

    Скачать торрент-файл бесплатно и на максимальной скорости!

    Как скачивать? · Что такое торрент? · Рейтинг и ограничения

    !ВНИМАНИЕ!
    Сайт не распространяет и не хранит электронные версии произведений, а занимается лишь лишь предоставлением доступа к создаваемому пользователями каталогу ссылок на торрент-файлы, которые содержат только списки хеш-сумм, убедительная просьба с жалобами обращаться напрямую к пользователю. Файлы для обмена на трекере предоставлены пользователями сайта, и администрация не несёт ответственности за их содержание. Просьба не заливать файлы, защищенные авторскими правами, а также файлы нелегального содержания!


    _________________
    [Профиль] [ЛС]
    Показать сообщения:    
    Ответить на тему

    Текущее время: Сегодня, в 20:07

    Часовой пояс: GMT + 2



    Вы не можете начинать темы
    Вы не можете отвечать на сообщения
    Вы не можете редактировать свои сообщения
    Вы не можете удалять свои сообщения
    Вы не можете голосовать в опросах
    Вы не можете прикреплять файлы к сообщениям
    Вы не можете скачивать файлы