BitTorrentTracker PerecTracker.org
BitTorrentTracker PerecTracker.org
    
Регистрация  ·  Вход
 
 · 
Забыли пароль?

  • Арло: Говорящий поросёнок / Arlo: The Burping Pig (Том ДеНуччи / Tom DeNucci) [2016, США, Семейный, WEB-DLRip] MVO (iTunes)

    Ответить на тему
     
    Автор Сообщение

    rechyn

    Создавать темы 17-Ноя-2016 21:35

           

    [Цитировать]

    Арло: Говорящий поросёнок / Arlo: The Burping Pig
    Страна: США
    Жанр: Семейный
    Год выпуска: 2016
    Продолжительность: 01:19:41
    Перевод: Профессиональный (многоголосый закадровый) iTunes
    Cубтитры: нет
    Режиссер: Том ДеНуччи / Tom DeNucci-В ролях: Дрэйк Белл, Джозеф Лоуренс, Дженнифер Бини Тейлор, Линдси Бланчард, Джонатан Липники, Эмбер Монтана, Билл Моусли, Майк Черроне, Йен Нилс-Описание: Поросенок Арло, питомец девочки Талии, постоянно попадает в комичные ситуации и радует окружающих. А Талия и одноклассники, благодаря поросенку, стали еще больше дружить.-Сэмпл: http://multi-up.com/1127168-Релиз от: MegaPeer-Качество видео: WEB-DLRip
    Формат видео: AVI
    Видео: 656x352 (1.85:1), 24.000 fps, XviD build 73, 1174 Kbps
    Аудио: 48.0 kHz, MPEG Layer 3, 2 ch, 128 kbps

    MediaInfo

    General
    Complete name : Downloads\Arlo.2016.WEB-DLRip.745MB.MegaPeer.avi
    Format : AVI
    Format/Info : Audio Video Interleave
    File size : 745 MiB
    Duration : 1h 19mn
    Overall bit rate : 1 308 Kbps
    Video #0
    ID : 0
    Format : MPEG-4 Visual
    Format profile : Advanced Simple@L5
    Format settings, BVOP : 1
    Format settings, QPel : No
    Format settings, GMC : No warppoints
    Format settings, Matrix : Custom
    Codec ID : XVID
    Codec ID/Hint : XviD
    Duration : 1h 19mn
    Bit rate : 1 174 Kbps
    Width : 656 pixels
    Height : 352 pixels
    Display aspect ratio : 1.85:1
    Frame rate : 24.000 fps
    Color space : YUV
    Chroma subsampling : 4:2:0
    Bit depth : 8 bits
    Scan type : Progressive
    Compression mode : Lossy
    Bits/(Pixel*Frame) : 0.212
    Stream size : 669 MiB (90%)
    Writing library : XviD 73
    Audio #1
    ID : 1
    Format : MPEG Audio
    Format version : Version 1
    Format profile : Layer 3
    Mode : Joint stereo
    Mode extension : MS Stereo
    Codec ID : 55
    Codec ID/Hint : MP3
    Duration : 1h 19mn
    Bit rate mode : Constant
    Bit rate : 128 Kbps
    Channel(s) : 2 channels
    Sampling rate : 48.0 KHz
    Compression mode : Lossy
    Stream size : 73.0 MiB (10%)
    Alignment : Aligned on interleaves
    Interleave, duration : 167 ms (4.00 video frames)
    Interleave, preload duration : 216 ms
    Title : iTunes

    Скриншот c названием фильма

    Скриншоты

    Скачать .torrent

    Скачать торрент-файл бесплатно и на максимальной скорости!

    Как скачивать? · Что такое торрент? · Рейтинг и ограничения

    !ВНИМАНИЕ!
    Сайт не распространяет и не хранит электронные версии произведений, а занимается лишь лишь предоставлением доступа к создаваемому пользователями каталогу ссылок на торрент-файлы, которые содержат только списки хеш-сумм, убедительная просьба с жалобами обращаться напрямую к пользователю. Файлы для обмена на трекере предоставлены пользователями сайта, и администрация не несёт ответственности за их содержание. Просьба не заливать файлы, защищенные авторскими правами, а также файлы нелегального содержания!


    _________________
    [Профиль] [ЛС]

    -746

    Создавать темы 22-Ноя-2016 14:45 (спустя 4 дня)

           

    Топик был перенесен из форума Фильмы 2016 в форум Детские зарубежные фильмы


    rechyn

    _________________
    Как бы ты высоко не летал, не забывай, с кем ты ползал..
     
    Показать сообщения:    
    Ответить на тему

    Текущее время: Сегодня, в 16:26

    Часовой пояс: GMT + 2



    Вы не можете начинать темы
    Вы не можете отвечать на сообщения
    Вы не можете редактировать свои сообщения
    Вы не можете удалять свои сообщения
    Вы не можете голосовать в опросах
    Вы не можете прикреплять файлы к сообщениям
    Вы не можете скачивать файлы