BitTorrentTracker PerecTracker.org
BitTorrentTracker PerecTracker.org
    
Регистрация  ·  Вход
 
 · 
Забыли пароль?

  • Заблудший (Семен Туманов) [1966, драма, экранизация, DVB]

    Ответить на тему
     
    Автор Сообщение

    Light

    Создавать темы 05-Июл-2015 17:41

           

    [Цитировать]

    Заблудший
    Жанр: драма, экранизация
    Год выпуска: 1966
    Продолжительность: 01:14:16
    Режиссёр: Семен Туманов
    В ролях: Николай Крючков, Лидия Смирнова, Клара Лучко, Лариса Барабанова, Иван Жеваго, Клавдия Хабарова, Анатолий Шаляпин, Оля Залыгалова, Алёша Ефремов
    Описание: Телефильм по одноименному рассказу Юрия Петухова.
    В трудные послевоенные годы Евсей (Н.Крючков) не захотел работать в разоренном колхозе и, бросив семью, подался в город. Однако, через много лет герой стал мучительно переживать разлуку с родными местами и решил наладить отношения с первой семьей
    Доп. информация: Запись потока *.ts со спутника Экспресс АМ7, 40° в.д., ремукс в *.mpg , удаление рекламы программой VideoReDo.
    Качество видео: DVB
    Формат видео: MPEG-РS
    Видео: MPEG Video, 720x576 (4 : 3), 25,000 кадров/сек, 323 Кбит/сек
    Аудио: MPEG Audio, 48,0 КГц, 256 Кбит/сек, 2 канала

    MediaInfo

    Общее
    Полное имя : D:\Torrent\ЗАБЛУДШИЙ (КУЛЬТУРА 40).mpg
    Формат : MPEG-PS
    Размер файла : 2,95 Гбайт
    Продолжительность : 1 ч. 14 м.
    Режим общего битрейта : Переменный
    Общий поток : 5692 Кбит/сек
    Видео
    Идентификатор : 224 (0xE0)
    Формат : MPEG Video
    Версия формата : Version 2
    Профиль формата : Main@Main
    Параметр BVOP формата : Да
    Параметр матрицы формата : Выборочная
    Параметр GOP формата : M=3, N=15
    Продолжительность : 1 ч. 14 м.
    Вид битрейта : Переменный
    Битрейт : 5323 Кбит/сек
    Максимальный битрейт : 15,0 Мбит/сек
    Ширина : 720 пикселей
    Высота : 576 пикселей
    Соотношение сторон : 4:3
    Частота кадров : 25,000 кадров/сек
    Стандарт вещания : PAL
    Цветовое пространство : YUV
    Субдискретизация насыщенности : 4:2:0
    Битовая глубина : 8 бит
    Тип развёртки : Чересстрочная
    Порядок развёртки : Верхнее поле первое
    Метод сжатия : С потерями
    Бит/(Пиксели*Кадры) : 0.513
    Временной код первого кадра : 00:00:00:00
    Оригинал временного кода : Group of pictures header
    Размер потока : 2,76 Гбайт (94%)
    Аудио
    Идентификатор : 192 (0xC0)
    Формат : MPEG Audio
    Версия формата : Version 1
    Профиль формата : Layer 2
    Продолжительность : 1 ч. 14 м.
    Вид битрейта : Постоянный
    Битрейт : 256 Кбит/сек
    Каналы : 2 канала
    Частота : 48,0 КГц
    Метод сжатия : С потерями
    Задержка видео : 9 мс.
    Размер потока : 136 Мбайт (4%)

    Скриншоты

    Скачать .torrent

    Скачать торрент-файл бесплатно и на максимальной скорости!

    Как скачивать? · Что такое торрент? · Рейтинг и ограничения

    !ВНИМАНИЕ!
    Сайт не распространяет и не хранит электронные версии произведений, а занимается лишь лишь предоставлением доступа к создаваемому пользователями каталогу ссылок на торрент-файлы, которые содержат только списки хеш-сумм, убедительная просьба с жалобами обращаться напрямую к пользователю. Файлы для обмена на трекере предоставлены пользователями сайта, и администрация не несёт ответственности за их содержание. Просьба не заливать файлы, защищенные авторскими правами, а также файлы нелегального содержания!


    _________________
    [Профиль] [ЛС]
    Показать сообщения:    
    Ответить на тему

    Текущее время: Сегодня, в 14:52

    Часовой пояс: GMT + 2



    Вы не можете начинать темы
    Вы не можете отвечать на сообщения
    Вы не можете редактировать свои сообщения
    Вы не можете удалять свои сообщения
    Вы не можете голосовать в опросах
    Вы не можете прикреплять файлы к сообщениям
    Вы не можете скачивать файлы