BitTorrentTracker PerecTracker.org
BitTorrentTracker PerecTracker.org
    
Регистрация  ·  Вход
 
 · 
Забыли пароль?

  • Чернобыль: 30 лет спустя / Chernobyl: 30 Years On (Дэниэл Баар) [2015, документальный фильм, WEBRip]

    Ответить на тему
     
    Автор Сообщение

    Columb

    Создавать темы 17-Ноя-2016 20:09

           

    [Цитировать]

    Чернобыль: 30 лет спустя / Chernobyl: 30 Years On
    Дата/Год выпуска: 2015
    Страна: Великобритания, Little Kingfisher Entertainment
    Жанр: документальный фильм
    Продолжительность: 00:52:14
    Перевод: Профессиональный (дублированный)
    Русские субтитры: нет
    Оригинальная аудиодорожка: нет
    Режиссер: Дэниэл Баар
    Описание: Британский документальный фильм «Чернобыль: 30 лет спустя» покажет, как сейчас выглядит место, где произошла одна из самых страшных катастроф в истории человечества, и расскажет о том, какую угрозу Чернобыль представляет в наши дни. 26 апреля 1986 года мир потрясло известие о взрыве на четвертом энергоблоке, которое повлекло за собой мощнейший выброс радиоактивных веществ в окружающую среду. Последствия аварии оказались чудовищны: десятки людей погибли, сотни – облучены. Более 115 тысяч человек было вынуждено покинуть свои дома и 600 тысяч работали над ликвидацией аварии. В ноябре 1986 года был построен защитный саркофаг, который должен был полностью изолировать четвертый энергоблок. Но со временем саркофаг частично разрушился. В данный момент ведутся работы по возведению нового укрытия, но оно до сих пор не построено. Спустя три десятка лет уровень радиации Чернобыля сравнивают с подмосковным и сюда ездят так называемые сталкеры – любители побродить по заброшенным городам. Но действительно ли безопасно пребывание в этих местах?
    Сэмпл: http://sendfile.su/1230185
    качество: WEBRip
    формат: AVI
    Видео: XVID, 720x400, 16:9, 1845 kbps 25 fps
    Аудио: MP3, 48.0 KHz, 128 kbps, 2 channels

    MediaInfo

    General
    Complete name : C:\Users\Anton_Rukavitsyn\Downloads\Чернобыль.30.лет.спустя.avi
    Format : AVI
    Format/Info : Audio Video Interleave
    File size : 741 MiB
    Duration : 52mn 14s
    Overall bit rate : 1 983 Kbps
    Writing application : VirtualDubMod 1.5.10.3 | www.virtualdub-fr.org || (build 2550/release)
    Writing library : VirtualDubMod build 2550/release
    Video
    ID : 0
    Format : MPEG-4 Visual
    Format profile : Advanced Simple@L5
    Format settings, BVOP : 1
    Format settings, QPel : No
    Format settings, GMC : No warppoints
    Format settings, Matrix : Custom
    Codec ID : XVID
    Codec ID/Hint : XviD
    Duration : 52mn 14s
    Bit rate : 1 845 Kbps
    Width : 720 pixels
    Height : 400 pixels
    Display aspect ratio : 16:9
    Frame rate : 25.000 fps
    Color space : YUV
    Chroma subsampling : 4:2:0
    Bit depth : 8 bits
    Scan type : Progressive
    Compression mode : Lossy
    Bits/(Pixel*Frame) : 0.256
    Stream size : 689 MiB (93%)
    Writing library : XviD 73
    Audio
    ID : 1
    Format : MPEG Audio
    Format version : Version 1
    Format profile : Layer 3
    Codec ID : 55
    Codec ID/Hint : MP3
    Duration : 52mn 13s
    Bit rate mode : Constant
    Bit rate : 128 Kbps
    Channel(s) : 2 channels
    Sampling rate : 48.0 KHz
    Compression mode : Lossy
    Stream size : 47.8 MiB (6%)
    Alignment : Aligned on interleaves
    Interleave, duration : 40 ms (1.00 video frame)
    Interleave, preload duratio : 504 ms
    Writing library : LAME3.99r
    Encoding settings : -m s -V 4 -q 2 -lowpass 17 -b 128

    Скриншоты





    Скачать .torrent

    Скачать торрент-файл бесплатно и на максимальной скорости!

    Как скачивать? · Что такое торрент? · Рейтинг и ограничения

    !ВНИМАНИЕ!
    Сайт не распространяет и не хранит электронные версии произведений, а занимается лишь лишь предоставлением доступа к создаваемому пользователями каталогу ссылок на торрент-файлы, которые содержат только списки хеш-сумм, убедительная просьба с жалобами обращаться напрямую к пользователю. Файлы для обмена на трекере предоставлены пользователями сайта, и администрация не несёт ответственности за их содержание. Просьба не заливать файлы, защищенные авторскими правами, а также файлы нелегального содержания!

    [Профиль] [ЛС]
    Показать сообщения:    
    Ответить на тему

    Текущее время: Сегодня, в 14:33

    Часовой пояс: GMT + 2



    Вы не можете начинать темы
    Вы не можете отвечать на сообщения
    Вы не можете редактировать свои сообщения
    Вы не можете удалять свои сообщения
    Вы не можете голосовать в опросах
    Вы не можете прикреплять файлы к сообщениям
    Вы не можете скачивать файлы