BitTorrentTracker PerecTracker.org
BitTorrentTracker PerecTracker.org
    
Регистрация  ·  Вход
 
 · 
Забыли пароль?

  • Тайная жизнь домашних животных / The Secret Life of Pets (Ярроу Чейни / Yarrow Cheney, Крис Рено / Chris Renaud) [2016, Япония, США, мультфильм, комедия, приключения, BDRip-AVC] Dub + Original + Sub (rus, eng)

    Ответить на тему
     
    Автор Сообщение

    Flirldrerve

    Создавать темы 17-Ноя-2016 08:55

           

    [Цитировать]

    Тайная жизнь домашних животных / The Secret Life of Pets«Думаете, они ждут вас у порога весь день?»-Страна: Япония, США
    Жанр: мультфильм, комедия, приключения, семейный
    Год выпуска: 2016
    Продолжительность: 01:26:27
    Перевод: Профессиональный (дублированный) (iTunes)
    Оригинальная аудиодорожка: английский
    Субтитры: русские (форс.) английские (полные, SDH)
    Навигация по главам: есть
    Режиссеры: Ярроу Чейни / Yarrow Cheney, Крис Рено / Chris Renaud
    В ролях: Луис С.К. (Max, озвучка), Эрик Стоунстрит (Duke, озвучка), Кевин Харт (Snowball, озвучка), Дженни Слейт (Gidget, озвучка), Элли Кемпер (Katie, озвучка), Альберт Брукс (Tiberius, озвучка), Лэйк Белл (Chloe, озвучка), Дэна Карви (Pops, озвучка), Хэннибал Бёресс (Buddy, озвучка), Бобби Мойнахан (Mel, озвучка), Крис Рено (Norman, озвучка), Стив Куган (Ozone / Reginald, озвучка)
    Описание: Что делают домашние животные пока хозяева пропадают на работе? С тоской смотрят в окно? Смиренно дремлют на коврике у двери? Как бы не так. Они ведут свою тайную жизнь.- -Качество: BDRip-AVC (исходник - BDRemux|The.Secret.Life.of.Pets.2016.1080p.BluRay.REMUX.AVC.DTS-HD.MA.TrueHD.7.1.Atmos-FGT)
    Формат видео: MKV
    Видео: x264, 1152x622 (1.85:1) 23,976 fps, ~2560 kbps, 0.149 bit/pixel
    Аудио 1: 48 kHz, AC3 Dolby Digital, 3/2 (L,C,R,l,r) + LFE ch, ~384 kbps [русский]
    Аудио 2: 48 kHz, AC3 Dolby Digital, 3/2 (L,C,R,l,r) + LFE ch, ~448 kbps [английский]
    Формат субтитров: softsub (SRT)-MediaInfo | x264 log
    Format : Matroska
    Format version : Version 4 / Version 2
    File size : 2.09 GiB
    Duration : 1 h 26 min
    Overall bit rate : 3 461 kb/s
    Movie name : Тайная жизнь домашних животных / The Secret Life of Pets (2016) :: AFM ::
    Encoded date : UTC 2016-11-16 23:04:50
    Writing application : mkvmerge v8.3.0 ('Over the Horizon') 32bit
    Writing library : libebml v1.3.1 + libmatroska v1.4.2
    Video
    ID : 1
    Format : AVC
    Format/Info : Advanced Video Codec
    Format profile : High@L4.1
    Format settings, CABAC : Yes
    Format settings, ReFrames : 11 frames
    Codec ID : V_MPEG4/ISO/AVC
    Duration : 1 h 26 min
    Bit rate : 2 560 kb/s
    Width : 1 152 pixels
    Height : 622 pixels
    Display aspect ratio : 1.85:1
    Frame rate mode : Constant
    Frame rate : 23.976 (24000/1001) FPS
    Color space : YUV
    Chroma subsampling : 4:2:0
    Bit depth : 8 bits
    Scan type : Progressive
    Bits/(Pixel*Frame) : 0.149
    Stream size : 1.55 GiB (74%)
    Title : BDRip by AFM
    Writing library : x264 core 148 r2721+55 e19946b t_mod_Custom [8-bit@all X86_64]
    Encoding settings : cabac=1 / ref=11 / deblock=1:-3:-3 / analyse=0x3:0x133 / me=umh / subme=10 / psy=1 / fade_compensate=0.00 / psy_rd=1.00:0.00 / mixed_ref=1 / me_range=32 / chroma_me=1 / trellis=2 / 8x8dct=1 / cqm=0 / deadzone=21,11 / fast_pskip=0 / chroma_qp_offset=-2 / threads=6 / lookahead_threads=1 / sliced_threads=0 / nr=0 / decimate=1 / interlaced=0 / bluray_compat=0 / constrained_intra=0 / fgo=0 / bframes=12 / b_pyramid=2 / b_adapt=2 / b_bias=0 / direct=1 / weightb=1 / open_gop=0 / weightp=2 / keyint=240 / keyint_min=23 / scenecut=40 / intra_refresh=0 / rc_lookahead=40 / rc=crf / mbtree=0 / crf=18.3000 / qcomp=0.65 / qpmin=0:0:0 / qpmax=69:69:69 / qpstep=4 / vbv_maxrate=50000 / vbv_bufsize=62500 / crf_max=0.0 / nal_hrd=none / filler=0 / ip_ratio=1.35 / pb_ratio=1.30 / aq=3:0.85 / aq-sensitivity=10.00 / aq-factor=1.00:1.00:1.00 / aq2=0 / aq3=0
    Language : English
    Default : Yes
    Forced : No
    Audio #1
    ID : 2
    Format : AC-3
    Format/Info : Audio Coding 3
    Mode extension : CM (complete main)
    Format settings, Endianness : Big
    Codec ID : A_AC3
    Duration : 1 h 26 min
    Bit rate mode : Constant
    Bit rate : 384 kb/s
    Channel(s) : 6 channels
    Channel positions : Front: L C R, Side: L R, LFE
    Sampling rate : 48.0 kHz
    Frame rate : 31.250 FPS (1536 spf)
    Compression mode : Lossy
    Stream size : 237 MiB (11%)
    Title : Dub, AC3 5.1 ~384 kbps
    Language : Russian
    Default : Yes
    Forced : No
    Audio #2
    ID : 3
    Format : AC-3
    Format/Info : Audio Coding 3
    Mode extension : CM (complete main)
    Format settings, Endianness : Big
    Codec ID : A_AC3
    Duration : 1 h 26 min
    Bit rate mode : Constant
    Bit rate : 448 kb/s
    Channel(s) : 6 channels
    Channel positions : Front: L C R, Side: L R, LFE
    Sampling rate : 48.0 kHz
    Frame rate : 31.250 FPS (1536 spf)
    Compression mode : Lossy
    Stream size : 277 MiB (13%)
    Title : Original, AC3 5.1 ~448 kbps
    Language : English
    Default : No
    Forced : No
    Text #1
    ID : 4
    Format : UTF-8
    Codec ID : S_TEXT/UTF8
    Codec ID/Info : UTF-8 Plain Text
    Title : forced
    Language : Russian
    Default : Yes
    Forced : No
    Text #2
    ID : 5
    Format : UTF-8
    Codec ID : S_TEXT/UTF8
    Codec ID/Info : UTF-8 Plain Text
    Language : English
    Default : No
    Forced : No
    Text #3
    ID : 6
    Format : UTF-8
    Codec ID : S_TEXT/UTF8
    Codec ID/Info : UTF-8 Plain Text
    Title : SDH
    Language : English
    Default : No
    Forced : No
    Menu
    00:00:00.000 : en:00:00:00.000
    00:05:05.847 : en:00:05:05.847
    00:09:24.063 : en:00:09:24.063
    00:13:18.840 : en:00:13:18.840
    00:18:03.666 : en:00:18:03.666
    00:22:14.458 : en:00:22:14.458
    00:28:51.855 : en:00:28:51.855
    00:32:54.848 : en:00:32:54.848
    00:36:55.839 : en:00:36:55.839
    00:42:27.295 : en:00:42:27.295
    00:44:46.767 : en:00:44:46.767
    00:50:21.227 : en:00:50:21.227
    00:54:45.407 : en:00:54:45.407
    00:59:33.987 : en:00:59:33.987
    01:02:36.544 : en:01:02:36.544
    01:07:12.362 : en:01:07:12.362
    01:13:06.841 : en:01:13:06.841
    01:16:04.602 : en:01:16:04.602
    01:18:48.057 : en:01:18:48.057
    01:19:58.836 : en:01:19:58.836

    x264

    x264 [info]: frame I:1010 Avg QP:16.59 size: 90457
    x264 [info]: frame P:30298 Avg QP:18.06 size: 26677
    x264 [info]: frame B:93059 Avg QP:21.06 size: 8634
    x264 [info]: consecutive B-frames: 2.9% 3.0% 15.7% 29.7% 15.0% 23.0% 2.8% 3.1% 2.8% 0.7% 0.5% 0.6% 0.3%
    x264 [info]: mb I I16..4: 7.3% 73.4% 19.3%
    x264 [info]: mb P I16..4: 1.3% 13.8% 2.2% P16..4: 35.2% 17.4% 13.0% 0.5% 0.2% skip:16.3%
    x264 [info]: mb B I16..4: 0.2% 1.6% 0.3% B16..8: 29.7% 9.2% 2.7% direct: 3.7% skip:52.6% L0:41.3% L1:44.2% BI:14.5%
    x264 [info]: 8x8 transform intra:78.1% inter:67.5%
    x264 [info]: coded y,uvDC,uvAC intra: 84.6% 83.0% 59.0% inter: 17.0% 14.4% 3.4%
    x264 [info]: i16 v,h,dc,p: 25% 14% 3% 58%
    x264 [info]: i8 v,h,dc,ddl,ddr,vr,hd,vl,hu: 12% 14% 5% 8% 12% 12% 13% 11% 13%
    x264 [info]: i4 v,h,dc,ddl,ddr,vr,hd,vl,hu: 11% 12% 3% 8% 16% 14% 15% 10% 12%
    x264 [info]: i8c dc,h,v,p: 33% 29% 20% 19%
    x264 [info]: Weighted P-Frames: Y:3.4% UV:1.9%
    x264 [info]: ref P L0: 51.7% 11.3% 14.4% 5.4% 4.4% 3.3% 3.0% 1.7% 1.6% 1.4% 1.5% 0.1% 0.0%
    x264 [info]: ref B L0: 74.6% 10.2% 5.3% 2.8% 2.1% 1.7% 1.4% 1.0% 0.7% 0.3%
    x264 [info]: ref B L1: 94.6% 5.4%
    x264 [info]: kb/s:2626.62

    Скриншоты

    с названием

    Скачать .torrent

    Скачать торрент-файл бесплатно и на максимальной скорости!

    Как скачивать? · Что такое торрент? · Рейтинг и ограничения

    !ВНИМАНИЕ!
    Сайт не распространяет и не хранит электронные версии произведений, а занимается лишь лишь предоставлением доступа к создаваемому пользователями каталогу ссылок на торрент-файлы, которые содержат только списки хеш-сумм, убедительная просьба с жалобами обращаться напрямую к пользователю. Файлы для обмена на трекере предоставлены пользователями сайта, и администрация не несёт ответственности за их содержание. Просьба не заливать файлы, защищенные авторскими правами, а также файлы нелегального содержания!


    _________________
    [Профиль] [ЛС]
    Показать сообщения:    
    Ответить на тему

    Текущее время: Сегодня, в 18:24

    Часовой пояс: GMT + 2



    Вы не можете начинать темы
    Вы не можете отвечать на сообщения
    Вы не можете редактировать свои сообщения
    Вы не можете удалять свои сообщения
    Вы не можете голосовать в опросах
    Вы не можете прикреплять файлы к сообщениям
    Вы не можете скачивать файлы