BitTorrentTracker PerecTracker.org
BitTorrentTracker PerecTracker.org
    
Регистрация  ·  Вход
 
 · 
Забыли пароль?

  • Том и Джерри: Шпионские игры / Том и Джерри: Шпион Квест / Tom and Jerry: Spy Quest (Спайк Брандт, Тони Червоне / Spike Brandt, Tony Cervone) [2015, мультфильм, WEB-DLRip] MVO

    Ответить на тему
     
    Автор Сообщение

    rechyn

    Создавать темы 05-Июл-2015 05:05

           

    [Цитировать]

    Том и Джерри: Шпионские игры
    Tom and Jerry: Spy Quest
    Страна: США
    Жанр: мультфильм
    Продолжительность: 01:12:53
    Год выпуска: 2015-Перевод: Профессиональный (многоголосый закадровый) ~ iTunes
    Русские субтитры: нет
    Режиссёр: Спайк Брандт, Тони Червоне / Spike Brandt, Tony Cervone-Роли озвучивали: Риз Хартвиг, Арни Пэнтоджа, Джеймс Хонг, Эрик Боза, Мишель Д. Хенкс-Описание: Ещё один день на пляже для проблемной парочки, пока Том и Джерри не сталкиваются со шпионами Джонни Квестом, Хаджи и Бандитом. Когда давний враг семьи Квестов, доктор Зин, узнаёт о том, что у Бентона Квеста есть орудие решения энергетических проблем мира, он посылает армию злобных кошек украсть его и взять в плен Бентона вместе с охранником Рэйсом Бэнноном. Джонни и его новые пушистые друзья отправляются на опасные поиски отца в попытке спасти мир!-Релиз:
    | | -Качество: WEB-DLRip
    Формат: AVI
    Видео: 688x384 (1.79:1), 23,976 fps, XviD 65 ~1 296 kbps avg, 0.20 bit/pixel
    Аудио: 48.0 kHz, MPEG Layer 3, 2 ch, ~128 kbps
    Субтитры: отсутствуют

    MI


    Общее
    Полное имя : E:\incarcare\rip gata\Tom.and.Jerry-Spy.Quest.2015.WEB-DLRip.746.avi
    Формат : AVI
    Формат/Информация : Audio Video Interleave
    Размер файла : 747 Мбайт
    Продолжительность : 1 ч. 12 м.
    Общий поток : 1433 Кбит/сек
    Программа кодирования : VirtualDubMod 1.5.10.2 (build 2540/release)
    Библиотека кодирования : VirtualDubMod build 2540/release
    Видео
    Идентификатор : 0
    Формат : MPEG-4 Visual
    Профиль формата : Advanced Simple@L5
    Параметр BVOP формата : 1
    Параметр QPel формата : Нет
    Параметр GMC формата : Без точки перехода
    Параметр матрицы формата : Выборочная
    Идентификатор кодека : XVID
    Идентификатор кодека/Подсказка : XviD
    Продолжительность : 1 ч. 12 м.
    Битрейт : 1296 Кбит/сек
    Ширина : 688 пикселей
    Высота : 384 пикселя
    Соотношение сторон : 16:9
    Частота кадров : 23,976 кадра/сек
    Цветовое пространство : YUV
    Субдискретизация насыщенности : 4:2:0
    Битовая глубина : 8 бит
    Тип развёртки : Прогрессивная
    Метод сжатия : С потерями
    Бит/(Пиксели*Кадры) : 0.205
    Размер потока : 675 Мбайт (90%)
    Библиотека кодирования : XviD 65
    Аудио
    Идентификатор : 1
    Формат : MPEG Audio
    Версия формата : Version 1
    Профиль формата : Layer 3
    Идентификатор кодека : 55
    Идентификатор кодека/Подсказка : MP3
    Продолжительность : 1 ч. 12 м.
    Вид битрейта : Постоянный
    Битрейт : 128 Кбит/сек
    Каналы : 2 канала
    Частота : 48,0 КГц
    Метод сжатия : С потерями
    Размер потока : 66,7 Мбайт (9%)
    Выравнивание : Соединение по промежуткам
    Продолжительность промежутка : 42 мс. (1,00 видеокадр)
    Время предзагрузки промежутка : 504 мс.

    Скриншоты


    _________________
    [Профиль] [ЛС]
    Показать сообщения:    
    Ответить на тему

    Текущее время: Сегодня, в 16:20

    Часовой пояс: GMT + 2



    Вы не можете начинать темы
    Вы не можете отвечать на сообщения
    Вы не можете редактировать свои сообщения
    Вы не можете удалять свои сообщения
    Вы не можете голосовать в опросах
    Вы не можете прикреплять файлы к сообщениям
    Вы не можете скачивать файлы