BitTorrentTracker PerecTracker.org
BitTorrentTracker PerecTracker.org
    
Регистрация  ·  Вход
 
 · 
Забыли пароль?

  • Пригородная готика / Suburban Gothic (Ричард Бейтс мл. / Richard Bates Jr.) [2014, США, Ужасы, мелодрама, комедия, WEB-DLRip] MVO

    Ответить на тему
     
    Автор Сообщение

    Light

    Создавать темы 05-Июл-2015 05:05

           

    [Цитировать]

    Пригородная готика / Suburban Gothic
    Страна: США
    Жанр: Ужасы, мелодрама, комедия
    Год выпуска: 2014
    Продолжительность: 01:30:55
    Перевод: Любительский (многоголосый закадровый)
    Cубтитры: нет
    Оригинальная аудиодорожка: нет
    Режиссер: Ричард Бейтс мл. / Richard Bates Jr.
    В ролях: Мэттью Грей Гублер, Кэт Деннингс, Рэй Уайз, Барбара Нивен, Мьюз Уотсон, Салли Кёркленд, Мэл Родригез, Джеффри Комбс, Джон Уотерс, Ронни Джин Блевинс
    Описание: У Рэймонда престижная степень магистра делового администрирования, но он не может найти работу. Он может связываться с паранормальными явлениями, но его озадачивает общение в чате с милой девушкой. Выгнанный из большой городской квартиры, Рэймонд возвращается домой к своей властной матери, отцу, бывшему качку, и одноклассникам с пивными животами. Но когда мстительный призрак начинает терроризировать небольшой городок, Рэймонд объединяется с Беккой, местной задиристой барменшой, чтобы разгадать тайну духа, угрожающего жизни каждого человека.
    Сэмпл / КиноПоиск
    Качество видео: WEB-DLRip
    Формат видео: AVI
    Видео: MPEG-4 Visual at 1752 Кбит/сек, 720 x 400 (1.800) at 23.976 fps
    Аудио: AC-3 at 384 Кбит/сек, 2 канала, 48,0 КГц

    Дополнительная информация о переводе

    Перевод: Алёна Сергеева
    Редакция сабов: Solaris
    Тайминг звуковых дорожек: Колобок, Виктори, XDub
    Постобработка звука: Андрей Питерский
    Редактура: Камилла Юнусова
    Роли озвучивали:
    Андрей Питерский
    Камилла Юнусова
    DEN904
    DeadSno
    Izanami
    Gyllor
    Robi Ainer

    MediaInfo

    Общее
    Полное имя : F:\Rutracker-Razdachi\Пригородная готика.2014.WEB-DLRip.avi
    Формат : AVI
    Формат/Информация : Audio Video Interleave
    Размер файла : 1,35 Гбайт
    Продолжительность : 1 ч. 30 м.
    Общий поток : 2145 Кбит/сек
    Программа кодирования : VirtualDubMod 1.5.10.2 (build 2540/release)
    Библиотека кодирования : VirtualDubMod build 2540/release
    Видео
    Идентификатор : 0
    Формат : MPEG-4 Visual
    Профиль формата : Advanced Simple@L5
    Параметр BVOP формата : 1
    Параметр QPel формата : Нет
    Параметр GMC формата : Без точки перехода
    Параметр матрицы формата : Default (H.263)
    Идентификатор кодека : XVID
    Идентификатор кодека/Подсказка : XviD
    Продолжительность : 1 ч. 30 м.
    Битрейт : 1752 Кбит/сек
    Ширина : 720 пикселей
    Высота : 400 пикселей
    Соотношение сторон : 16:9
    Частота кадров : 23,976 кадра/сек
    Цветовое пространство : YUV
    Субдискретизация насыщенности : 4:2:0
    Битовая глубина : 8 бит
    Тип развёртки : Прогрессивная
    Метод сжатия : С потерями
    Бит/(Пиксели*Кадры) : 0.254
    Размер потока : 1,10 Гбайт (82%)
    Библиотека кодирования : XviD 1.2.1 (UTC 2008-12-04)
    Аудио
    Идентификатор : 1
    Формат : AC-3
    Формат/Информация : Audio Coding 3
    Расширение режима : CM (complete main)
    Параметр Endianness формата : Big
    Идентификатор кодека : 2000
    Продолжительность : 1 ч. 30 м.
    Вид битрейта : Постоянный
    Битрейт : 384 Кбит/сек
    Каналы : 2 канала
    Расположение каналов : Front: L R
    Частота : 48,0 КГц
    Битовая глубина : 16 бит
    Метод сжатия : С потерями
    Задержка видео : 3 мс.
    Размер потока : 247 Мбайт (18%)
    Выравнивание : Разделение по промежуткам
    Продолжительность промежутка : 42 мс. (1,00 видеокадр)
    Время предзагрузки промежутка : 500 мс.

    Скриншоты

    Внимание: В картине присутствует ненормативная лексика !!!
    Скачать .torrent

    Скачать торрент-файл бесплатно и на максимальной скорости!

    Как скачивать? · Что такое торрент? · Рейтинг и ограничения

    !ВНИМАНИЕ!
    Сайт не распространяет и не хранит электронные версии произведений, а занимается лишь лишь предоставлением доступа к создаваемому пользователями каталогу ссылок на торрент-файлы, которые содержат только списки хеш-сумм, убедительная просьба с жалобами обращаться напрямую к пользователю. Файлы для обмена на трекере предоставлены пользователями сайта, и администрация не несёт ответственности за их содержание. Просьба не заливать файлы, защищенные авторскими правами, а также файлы нелегального содержания!


    _________________
    [Профиль] [ЛС]
    Показать сообщения:    
    Ответить на тему

    Текущее время: Сегодня, в 18:57

    Часовой пояс: GMT + 2



    Вы не можете начинать темы
    Вы не можете отвечать на сообщения
    Вы не можете редактировать свои сообщения
    Вы не можете удалять свои сообщения
    Вы не можете голосовать в опросах
    Вы не можете прикреплять файлы к сообщениям
    Вы не можете скачивать файлы