BitTorrentTracker PerecTracker.org
BitTorrentTracker PerecTracker.org
    
Регистрация  ·  Вход
 
 · 
Забыли пароль?

  • Конская голова / Лихорадка / Horsehead / Fever (Роман Бассе / Romain Basset) [2014, Франция, фантасмагория, ужасы, BDRip-AVC] DVO (2D) + Sub Eng + Original Eng

    Ответить на тему
     
    Автор Сообщение

    Light

    Создавать темы 05-Июл-2015 05:05

           

    [Цитировать]

    Конская голова / Лихорадка / Horsehead / Fever
    Страна: Франция
    Студия: HorseHead Pictures, Starfix Productions
    Жанр: фантасмагория, ужасы
    Год выпуска: 2014
    Продолжительность: 01:35:55
    Перевод: Любительский (двухголосый закадровый) 2D
    Cубтитры: английские
    Оригинальная аудиодорожка: английский
    Режиссер: Роман Бассе / Romain Basset
    В ролях: Лилия-Флёр Пуанто, Катриона МакКолл, Мюррэй Хэд, Гала Бессон, Фуад Эт Аату, Вернон Добчефф
    Описание: С самого детства Джессику преследуют повторяющиеся ночные кошмары. Девушка хочет разобраться, что же они означают и приступает к изучению осознанных сновидений с помощью авторитетного специалиста. Вскоре ей открываются страшные тайны прошлого своей семьи.
    II Сэмпл II IMDB II
    Качество видео: BDRip-AVC (Horsehead.2014.BluRay.REMUX.1080p.AVC.DTS-HD.MA.5.1-HDArea)
    Формат видео: MKV
    Видео: AVC / 1136x480 / 2.35:1 / 23.976fps / Bit rate 2585Kbps / b/p 0.198
    Аудио 1: AC3 / 48.0KHz / 2ch. / 192kbps / rus / dvo / 2D
    Аудио 2: AC3 / 48.0KHz / 6ch. / 448kbps / eng
    Формат субтитров: softsub (SRT)

    MediaInfo

    Общее
    Уникальный идентификатор : 172350759536739410105627307529193966479 (0x81A98C82F05BAE79B53CACE341CCCB8F)
    Полное имя : D:\torrent\Horsehead.2014.BDRip-AVC_by_vedigo.mkv
    Формат : Matroska
    Версия формата : Version 4 / Version 2
    Размер файла : 2,16 Гбайт
    Продолжительность : 1 ч. 35 м.
    Общий поток : 3224 Кбит/сек
    Дата кодирования : UTC 2015-07-04 02:33:34
    Программа кодирования : mkvmerge v8.1.0 ('Psychedelic Postcard') 64bit
    Библиотека кодирования : libebml v1.3.1 + libmatroska v1.4.2
    DURATION : 01:29:00.220000000
    NUMBER_OF_FRAMES : 536
    NUMBER_OF_BYTES : 16751
    _STATISTICS_WRITING_APP : mkvmerge v8.1.0 ('Psychedelic Postcard') 64bit
    _STATISTICS_WRITING_DATE_UTC : 2015-07-04 02:33:34
    _STATISTICS_TAGS : BPS DURATION NUMBER_OF_FRAMES NUMBER_OF_BYTES
    Видео
    Идентификатор : 1
    Формат : AVC
    Формат/Информация : Advanced Video Codec
    Профиль формата : High@L4.1
    Параметр CABAC формата : Да
    Параметр ReFrames формата : 15 кадров
    Идентификатор кодека : V_MPEG4/ISO/AVC
    Продолжительность : 1 ч. 35 м.
    Битрейт : 2585 Кбит/сек
    Ширина : 1136 пикселей
    Высота : 480 пикселей
    Соотношение сторон : 2,35:1
    Режим частоты кадров : Постоянный
    Частота кадров : 23,976 кадра/сек
    Цветовое пространство : YUV
    Субдискретизация насыщенности : 4:2:0
    Битовая глубина : 8 бит
    Тип развёртки : Прогрессивная
    Бит/(Пиксели*Кадры) : 0.198
    Размер потока : 1,69 Гбайт (78%)
    Заголовок : Horsehead.2014.BDRip-AVC_by_vedigo
    Библиотека кодирования : x264 core 146 r2538 121396c
    Настройки программы : cabac=1 / ref=15 / deblock=1:-3:-3 / analyse=0x3:0x133 / me=umh / subme=11 / psy=1 / psy_rd=1.00:0.10 / mixed_ref=1 / me_range=36 / chroma_me=1 / trellis=2 / 8x8dct=1 / cqm=0 / deadzone=21,11 / fast_pskip=0 / chroma_qp_offset=-3 / threads=12 / lookahead_threads=2 / sliced_threads=0 / nr=0 / decimate=1 / interlaced=0 / bluray_compat=0 / constrained_intra=0 / bframes=8 / b_pyramid=2 / b_adapt=2 / b_bias=0 / direct=3 / weightb=1 / open_gop=0 / weightp=2 / keyint=250 / keyint_min=23 / scenecut=40 / intra_refresh=0 / rc_lookahead=40 / rc=2pass / mbtree=0 / bitrate=2585 / ratetol=1.0 / qcomp=0.60 / qpmin=0 / qpmax=69 / qpstep=4 / cplxblur=20.0 / qblur=0.5 / vbv_maxrate=50000 / vbv_bufsize=62500 / nal_hrd=none / filler=0 / ip_ratio=1.40 / pb_ratio=1.30 / aq=1:1.00
    Default : Да
    Forced : Нет
    DURATION : 01:35:55.792000000
    NUMBER_OF_FRAMES : 138001
    NUMBER_OF_BYTES : 1857562334
    _STATISTICS_WRITING_APP : mkvmerge v8.1.0 ('Psychedelic Postcard') 64bit
    _STATISTICS_WRITING_DATE_UTC : 2015-07-04 02:33:34
    _STATISTICS_TAGS : BPS DURATION NUMBER_OF_FRAMES NUMBER_OF_BYTES
    Аудио #1
    Идентификатор : 2
    Формат : AC-3
    Формат/Информация : Audio Coding 3
    Расширение режима : CM (complete main)
    Параметр Endianness формата : Big
    Идентификатор кодека : A_AC3
    Продолжительность : 1 ч. 35 м.
    Вид битрейта : Постоянный
    Битрейт : 192 Кбит/сек
    Каналы : 2 канала
    Расположение каналов : Front: L R
    Частота : 48,0 КГц
    Метод сжатия : С потерями
    Размер потока : 132 Мбайт (6%)
    Заголовок : dvo @ 2D
    Язык : Russian
    Default : Да
    Forced : Нет
    Аудио #2
    Идентификатор : 3
    Формат : AC-3
    Формат/Информация : Audio Coding 3
    Расширение режима : CM (complete main)
    Параметр Endianness формата : Big
    Идентификатор кодека : A_AC3
    Продолжительность : 1 ч. 35 м.
    Вид битрейта : Постоянный
    Битрейт : 448 Кбит/сек
    Каналы : 6 каналов
    Расположение каналов : Front: L C R, Side: L R, LFE
    Частота : 48,0 КГц
    Метод сжатия : С потерями
    Размер потока : 307 Мбайт (14%)
    Заголовок : AC3 @ 6ch
    Язык : English
    Default : Нет
    Forced : Нет
    Текст
    Идентификатор : 4
    Формат : UTF-8
    Идентификатор кодека : S_TEXT/UTF8
    Идентификатор кодека/Информация : UTF-8 Plain Text
    Заголовок : subtitle eng
    Язык : English
    Default : Нет
    Forced : Нет

    Скриншот c названием фильма

    Скриншоты


    Скачать .torrent

    Скачать торрент-файл бесплатно и на максимальной скорости!

    Как скачивать? · Что такое торрент? · Рейтинг и ограничения

    !ВНИМАНИЕ!
    Сайт не распространяет и не хранит электронные версии произведений, а занимается лишь лишь предоставлением доступа к создаваемому пользователями каталогу ссылок на торрент-файлы, которые содержат только списки хеш-сумм, убедительная просьба с жалобами обращаться напрямую к пользователю. Файлы для обмена на трекере предоставлены пользователями сайта, и администрация не несёт ответственности за их содержание. Просьба не заливать файлы, защищенные авторскими правами, а также файлы нелегального содержания!


    _________________
    [Профиль] [ЛС]
    Показать сообщения:    
    Ответить на тему

    Текущее время: Сегодня, в 20:10

    Часовой пояс: GMT + 2



    Вы не можете начинать темы
    Вы не можете отвечать на сообщения
    Вы не можете редактировать свои сообщения
    Вы не можете удалять свои сообщения
    Вы не можете голосовать в опросах
    Вы не можете прикреплять файлы к сообщениям
    Вы не можете скачивать файлы