BitTorrentTracker PerecTracker.org
BitTorrentTracker PerecTracker.org
    
Регистрация  ·  Вход
 
 · 
Забыли пароль?

  • Парни из женской общаги / Sorority Boys (Уоллес Володарски) [2002, США, комедия, WEB-DL HD (720p)] MVO, DVO, AVO, Original + SUB (rus, ukr, eng)

    Ответить на тему
     
    Автор Сообщение

    rechyn

    Создавать темы 04-Июл-2015 20:41

           

    [Цитировать]

    Парни из женской общаги / Sorority Boys
    "The only way to become one of the boys again... is to become one of the girls"
    6.742 / 10
    -Год выпуска: 2002
    Страна: США
    Жанр: комедия
    Продолжительность: 93 мин.
    Перевод: Многоголосый закадровый перевод, двухголосый закадровый перевод и одноголосый закадровый авторский перевод
    Оригинальная аудиодорожка: Есть
    Cубтитры: Русские форсированные, русские полные, украинские полные и английские полные
    Режиссёр: Уоллес Володарски
    Сценарий: Джо Джарвис, Грег Кулидж
    Продюсер: Ларри Брэзнер, Уолтер Хамада, Майкл Фоттрел
    Оператор: Майкл Д. О’Ши
    Композитор: Марк Мазерсбо
    Художник: Эдвард Т. МакЭвой, Брутон Джонс, Мелинда Эшелман
    Монтаж: Ричард Халсли, Тод Лотенберг
    В ролях: Бэрри Уотсон, Майкл Розенбаум, Харланд Уильямс, Мелисса Сейджмиллер, Тони Денмен, Брэд Бейер, Кэтрин Стоквуд, Хизер Матараццо, Ивонн Шио, Керри Хигути
    Бюджет: $12 000 000
    Сборы в США: $10 200 032
    Сборы в мире: + $2 317 456 = $12 517 488
    Мировая премьера: 19 марта 2002
    Релиз на DVD: 5 апреля 2011, Уолт Дисней Компани СНГ
    Описание: Друзья-студенты Дэйв, Адам и Дуфер не раз попадали в переплет, но на этот раз судьба угостила их ну очень сурово, их вышибли из мужского общежития родного колледжа на улицу, ветер в карманах и отсутствие крыши над головой заставляют людей соображать очень быстро, и вот уже коллективный разум друзей производит на свет план настолько же гениальный, насколько безумный: они решают выдать себя... за девушек и найти приют в стенах женского общежития!
    Да здравствуют парики, косметика и депиляторы! Благодаря им больше нет трио мачо-плейбоев. Есть Дэйзи, Адина и Роберта, троица дюжих "студенток". Новеньких "сестер" ждет теплый прием, но Дэйв-Дэйзи совершает роковой промах, угрожающий ему и друзьям разоблачением - он влюбляется в первую красотку колледжа Лею и намерен несмотря ни на что сообщить ей о своих чувствах!..-Качество исходника: WEB-DL 720p (HDClub)
    Качество: WEB-DL
    Тип: 720p
    Контейнер: m4v
    Видео: 1280x692 at 23.976 fps, MPEG-4 AVC, ~4150 kbps avg
    Аудио#1: Russian: 48 kHz, ААС, 2/0 (L,R), ~128.00 kbps avg |Многоголосый закадровый, iTunes Russia|
    Аудио#2: Russian: 48 kHz, ААС, 2/0 (L,R), ~160.00 kbps avg |Многоголосый закадровый, R5|
    Аудио#3: Russian: 48 kHz, ААС, 2/0 (L,R), ~160.00 kbps avg |Двухголосый закадровый, П. Гланц с подругой|
    Аудио#4: Russian: 48 kHz, ААС, 2/0 (L,R), ~160.00 kbps avg |Одноголосый закадровый, С. Визгунов|
    Аудио#5: Ukrainian: 48 kHz, ААС, 2/0 (L,R), ~160.00 kbps avg |Двухголосый закадровый, 1+1|
    Аудио#6: English: 48 kHz, ААС, 2/0 (L,R), ~160.00 kbps avg |DVD R1|
    Аудио#7: Russian: 48 kHz, AC3, 3/2 (L,C,R,l,r) + LFE ch, ~384.00 kbps avg |Многоголосый закадровый, R5|
    Аудио#8: Russian: 48 kHz, AC3, 3/2 (L,C,R,l,r) + LFE ch, ~448.00 kbps avg |Двухголосый закадровый, Гланц с подругой|
    Аудио#9: English: 48 kHz, AC3, 3/2 (L,C,R,l,r) + LFE ch, ~448.00 kbps avg |DVD R1|
    Субтитры №1: Russian: |Форсированные, iTunes Russia|
    Субтитры №2: Russian: |Полные, iTunes Russia|
    Субтитры №3: Ukrainian: |Полные, R5|
    Субтитры №4: English: |Полные, DCD R1|-

    iTunes Meta Tags for country ru

    Name: Парни из женской общаги
    Artist: Wally Wolodarsky
    Genre: Комедии
    Release Date: 2002-03-19T08:00:00Z
    Description: Друзья-студенты Дэйв, Адам и Дуфер не раз попадали в переплет, но на этот раз судьба угостила их ну очень сурово, их вышибли из мужского общежития родного колледжа на улицу, ветер в карманах и отсутствие крыши над головой заставляют людей соображать очень быстро, и вот уже коллективный разум друзей производит на свет план настолько же гениальный, насколько безумный: они решают выдать себя... за девушек и найти приют в стенах женского общежития!..
    Long Description: Друзья-студенты Дэйв, Адам и Дуфер не раз попадали в переплет, но на этот раз судьба угостила их ну очень сурово, их вышибли из мужского общежития родного колледжа на улицу, ветер в карманах и отсутствие крыши над головой заставляют людей соображать очень быстро, и вот уже коллективный разум друзей производит на свет план настолько же гениальный, насколько безумный: они решают выдать себя... за девушек и найти приют в стенах женского общежития!
    Да здравствуют парики, косметика и депиляторы! Благодаря им больше нет трио мачо-плейбоев. Есть Дэйзи, Адина и Роберта, троица дюжих "студенток". Новеньких "сестер" ждет теплый прием, но Дэйв-Дэйзи совершает роковой промах, угрожающий ему и друзьям разоблачением - он влюбляется в первую красотку колледжа Лею и намерен несмотря ни на что сообщить ей о своих чувствах!..
    Rating: 16+
    Rating Annotation: Rated 16+ Для зрителей, достигших возраста 16 лет
    Studio: Touchstone Pictures
    Cast: Бэрри Уотсон, Майкл Розенбаум, Харланд Уильямс, Мелисса Сейджмиллер, Тони Денмен, Брэд Бейер, Кэтрин Стоквуд, Хизер Матараццо, Ивонн Шио, Керри Хигути
    Director: Уоллес Володарски
    Producers: Ларри Брэзнер, Уолтер Хамада, Майкл Фоттрел
    Screenwriters: Джо Джарвис, Грег Кулидж
    Copyright: © 2002 Touchstone Pictures
    contentID: 216318620
    XID: Apple:vendor_id:2002-21507
    Sort Name: Парни из женской общаги

    iTunes Meta Tags for country us

    Name: Sorority Boys
    Artist: Wally Wolodarsky
    Genre: Comedy
    Release Date: 2002-03-19T08:00:00Z
    Description: Друзья-студенты Дэйв, Адам и Дуфер не раз попадали в переплет, но на этот раз судьба угостила их ну очень сурово, их вышибли из мужского общежития родного колледжа на улицу, ветер в карманах и отсутствие крыши над головой заставляют людей соображать очень быстро, и вот уже коллективный разум друзей производит на свет план настолько же гениальный, насколько безумный: они решают выдать себя... за девушек и найти приют в стенах женского общежития!..
    Long Description: Друзья-студенты Дэйв, Адам и Дуфер не раз попадали в переплет, но на этот раз судьба угостила их ну очень сурово, их вышибли из мужского общежития родного колледжа на улицу, ветер в карманах и отсутствие крыши над головой заставляют людей соображать очень быстро, и вот уже коллективный разум друзей производит на свет план настолько же гениальный, насколько безумный: они решают выдать себя... за девушек и найти приют в стенах женского общежития!
    Да здравствуют парики, косметика и депиляторы! Благодаря им больше нет трио мачо-плейбоев. Есть Дэйзи, Адина и Роберта, троица дюжих "студенток". Новеньких "сестер" ждет теплый прием, но Дэйв-Дэйзи совершает роковой промах, угрожающий ему и друзьям разоблачением - он влюбляется в первую красотку колледжа Лею и намерен несмотря ни на что сообщить ей о своих чувствах!..
    Rating: R
    Rating Annotation: Rated R For Crude Sexual Content, Nudity, Strong Language And Some Drug Use.
    Studio: Touchstone Pictures
    Cast: Бэрри Уотсон, Майкл Розенбаум, Харланд Уильямс, Мелисса Сейджмиллер, Тони Денмен, Брэд Бейер, Кэтрин Стоквуд, Хизер Матараццо, Ивонн Шио, Керри Хигути
    Director: Уоллес Володарски
    Producers: Ларри Брэзнер, Уолтер Хамада, Майкл Фоттрел
    Screenwriters: Джо Джарвис, Грег Кулидж
    Copyright: © Touchstone Pictures. All Rights Reserved.
    contentID: 216318620
    XID: Apple:vendor_id:2002-21507
    Sort Name: Sorority Boys

    MediaInfo 720p Release

    General
    Complete name : Sorority Boys (HD).m4v
    Format : MPEG-4
    Codec ID : M4V
    File size : 4.15 GiB
    Duration : 1h 33mn
    Overall bit rate mode : Variable
    Overall bit rate : 6 345 Kbps
    Movie name : Sorority Boys
    Performer : Wally Wolodarsky
    Director : Уоллес Володарски
    Actor : Бэрри Уотсон / Майкл Розенбаум / Харланд Уильямс / Мелисса Сейджмиллер / Тони Денмен / Брэд Бейер / Кэтрин Стоквуд / Хизер Матараццо / Ивонн Шио / Керри Хигути
    Screenplay by : Джо Джарвис / Грег Кулидж
    Producer : Ларри Брэзнер / Уолтер Хамада / Майкл Фоттрел
    Production studio : Touchstone Pictures
    Genre : Comedy
    ContentType : Short Film
    Description : Друзья-студенты Дэйв, Адам и Дуфер не раз попадали в переплет, но на этот раз судьба угостила их ну очень сурово, их вышибли из мужского общежития родного колледжа на улицу, ветер в карманах и отсутствие крыши над головой заставляют людей соображать очень быстро, и вот уже коллективный разум друзей производит на свет план настолько же гениальный, насколько безумный: они решают выдать себя... за девушек и найти приют в стенах женского общежития!..
    Recorded date : UTC 2002-03-19 08:00:00
    Encoded date : UTC 2015-05-22 13:06:46
    Tagged date : UTC 2015-05-22 13:10:47
    Copyright : © Touchstone Pictures. All Rights Reserved.
    Cover : Yes
    Rating : None
    Title/Sort : Sorority Boys
    LongDescription : Друзья-студенты Дэйв, Адам и Дуфер не раз попадали в переплет, но на этот раз судьба угостила их ну очень сурово, их вышибли из мужского общежития родного колледжа на улицу, ветер в карманах и отсутствие крыши над головой заставляют людей соображать очень быстро, и вот уже коллективный разум друзей производит на свет план настолько же гениальный, насколько безумный: они решают выдать себя... за девушек и найти приют в стенах женского общежития! / Да здравствуют парики, косметика и депиляторы! Благодаря им больше нет трио мачо-плейбоев. Есть Дэйзи, Адина и Роберта, троица дюжих "студенток". Новеньких "сестер" ждет теплый прием, но Дэйв-Дэйзи совершает роковой промах, угрожающий ему и друзьям разоблачением - он влюбляется в первую красотку колледжа Лею и намерен несмотря ни на что сообщить ей о своих чувствах!..
    HDVideo : Yes
    AppleStoreCatalogID : 216318620
    Vendor : Apple:vendor_id:2002-21507
    ContentRating : mpaa|R|400|Rated R For Crude Sexual Content, Nudity, Strong Language And Some Drug Use.
    Video #1
    ID : 1
    Format : AVC
    Format/Info : Advanced Video Codec
    Format profile : High@L3.1
    Format settings, CABAC : No
    Format settings, ReFrames : 2 frames
    Format settings, GOP : M=2, N=88
    Codec ID : avc1
    Codec ID/Info : Advanced Video Coding
    Duration : 1h 33mn
    Source duration : 1h 33mn
    Bit rate : 4 147 Kbps
    Width : 1 280 pixels
    Height : 692 pixels
    Display aspect ratio : 1.85:1
    Frame rate mode : Variable
    Frame rate : 23.976 fps
    Minimum frame rate : 23.810 fps
    Maximum frame rate : 24.390 fps
    Color space : YUV
    Chroma subsampling : 4:2:0
    Bit depth : 8 bits
    Scan type : Progressive
    Bits/(Pixel*Frame) : 0.195
    Stream size : 2.72 GiB (65%)
    Source stream size : 2.72 GiB (65%)
    Title : Main Program
    Language : English
    Encoded date : UTC 2015-05-22 13:06:46
    Tagged date : UTC 2015-05-22 13:08:11
    Color range : Limited
    Color primaries : BT.709
    Transfer characteristics : BT.709
    Matrix coefficients : BT.709
    Video #2
    ID : 16
    Format : JPEG
    Codec ID : jpeg
    Duration : 1h 33mn
    Bit rate mode : Variable
    Bit rate : 936 bps
    Width : 640 pixels
    Height : 346 pixels
    Display aspect ratio : 1.85:1
    Frame rate mode : Variable
    Frame rate : 0.002 fps
    Minimum frame rate : 0.001 fps
    Maximum frame rate : 0.005 fps
    Color space : YUV
    Chroma subsampling : 4:2:0
    Bit depth : 8 bits
    Compression mode : Lossy
    Bits/(Pixel*Frame) : 2.113
    Stream size : 572 KiB (0%)
    Title : Chapter Images
    Language : English
    Encoded date : UTC 2015-05-22 13:08:13
    Tagged date : UTC 2015-05-22 13:08:13
    Audio #1
    ID : 2
    Format : AAC
    Format/Info : Advanced Audio Codec
    Format profile : LC
    Codec ID : 40
    Duration : 1h 33mn
    Bit rate mode : Variable
    Bit rate : 127 Kbps
    Maximum bit rate : 141 Kbps
    Channel(s) : 2 channels
    Channel positions : Front: L R
    Sampling rate : 48.0 KHz
    Compression mode : Lossy
    Stream size : 85.4 MiB (2%)
    Title : Russian MVO from iTunes Stereo
    Language : Russian
    Encoded date : UTC 2015-05-22 13:06:46
    Tagged date : UTC 2015-05-22 13:08:11
    Audio #2
    ID : 3
    Format : AAC
    Format/Info : Advanced Audio Codec
    Format profile : LC
    Codec ID : 40
    Duration : 1h 33mn
    Bit rate mode : Variable
    Bit rate : 164 Kbps
    Maximum bit rate : 263 Kbps
    Channel(s) : 2 channels
    Channel positions : Front: L R
    Sampling rate : 48.0 KHz
    Compression mode : Lossy
    Stream size : 110 MiB (3%)
    Title : Russian MVO R5 Stereo
    Language : Russian
    Encoded date : UTC 2015-05-22 13:06:46
    Tagged date : UTC 2015-05-22 13:08:11
    Audio #3
    ID : 4
    Format : AAC
    Format/Info : Advanced Audio Codec
    Format profile : LC
    Codec ID : 40
    Duration : 1h 33mn
    Bit rate mode : Variable
    Bit rate : 165 Kbps
    Maximum bit rate : 268 Kbps
    Channel(s) : 2 channels
    Channel positions : Front: L R
    Sampling rate : 48.0 KHz
    Compression mode : Lossy
    Stream size : 111 MiB (3%)
    Title : Russian DVO P.Glanz & I.Koroleva Stereo
    Language : Russian
    Encoded date : UTC 2015-05-22 13:06:46
    Tagged date : UTC 2015-05-22 13:08:11
    Audio #4
    ID : 5
    Format : AAC
    Format/Info : Advanced Audio Codec
    Format profile : LC
    Codec ID : 40
    Duration : 1h 33mn
    Bit rate mode : Variable
    Bit rate : 161 Kbps
    Maximum bit rate : 237 Kbps
    Channel(s) : 2 channels
    Channel positions : Front: L R
    Sampling rate : 48.0 KHz
    Compression mode : Lossy
    Stream size : 108 MiB (3%)
    Title : Russian AVO S.Vizgunov Stereo
    Language : Russian
    Encoded date : UTC 2015-05-22 13:06:46
    Tagged date : UTC 2015-05-22 13:08:11
    Audio #5
    ID : 6
    Format : AAC
    Format/Info : Advanced Audio Codec
    Format profile : LC
    Codec ID : 40
    Duration : 1h 33mn
    Bit rate mode : Variable
    Bit rate : 116 Kbps
    Maximum bit rate : 148 Kbps
    Channel(s) : 2 channels
    Channel positions : Front: L R
    Sampling rate : 48.0 KHz
    Compression mode : Lossy
    Stream size : 77.9 MiB (2%)
    Title : Ukrainian MVO 1+1 Stereo
    Language : Ukrainian
    Encoded date : UTC 2015-05-22 13:06:46
    Tagged date : UTC 2015-05-22 13:08:11
    Audio #6
    ID : 7
    Format : AAC
    Format/Info : Advanced Audio Codec
    Format profile : LC
    Codec ID : 40
    Duration : 1h 33mn
    Bit rate mode : Variable
    Bit rate : 165 Kbps
    Maximum bit rate : 271 Kbps
    Channel(s) : 2 channels
    Channel positions : Front: L R
    Sampling rate : 48.0 KHz
    Compression mode : Lossy
    Stream size : 111 MiB (3%)
    Title : English DVD R1 Stereo
    Language : English
    Encoded date : UTC 2015-05-22 13:06:46
    Tagged date : UTC 2015-05-22 13:06:51
    Audio #7
    ID : 8
    Format : AC-3
    Format/Info : Audio Coding 3
    Mode extension : CM (complete main)
    Format settings, Endianness : Big
    Codec ID : ac-3
    Duration : 1h 33mn
    Bit rate mode : Constant
    Bit rate : 384 Kbps
    Channel(s) : 6 channels
    Channel positions : Front: L C R, Side: L R, LFE
    Sampling rate : 48.0 KHz
    Bit depth : 16 bits
    Compression mode : Lossy
    Stream size : 257 MiB (6%)
    Title : Russian MVO R5 DD 5.1
    Language : Russian
    Encoded date : UTC 2015-05-22 13:06:46
    Tagged date : UTC 2015-05-22 13:08:11
    Audio #8
    ID : 9
    Format : AC-3
    Format/Info : Audio Coding 3
    Mode extension : CM (complete main)
    Format settings, Endianness : Big
    Codec ID : ac-3
    Duration : 1h 33mn
    Bit rate mode : Constant
    Bit rate : 448 Kbps
    Channel(s) : 6 channels
    Channel positions : Front: L C R, Side: L R, LFE
    Sampling rate : 48.0 KHz
    Bit depth : 16 bits
    Compression mode : Lossy
    Stream size : 300 MiB (7%)
    Title : Russian DVO P.Glanz & I.Koroleva DD 5.1
    Language : Russian
    Encoded date : UTC 2015-05-22 13:06:46
    Tagged date : UTC 2015-05-22 13:08:11
    Audio #9
    ID : 10
    Format : AC-3
    Format/Info : Audio Coding 3
    Mode extension : CM (complete main)
    Format settings, Endianness : Big
    Codec ID : ac-3
    Duration : 1h 33mn
    Bit rate mode : Constant
    Bit rate : 448 Kbps
    Channel(s) : 6 channels
    Channel positions : Front: L C R, Side: L R, LFE
    Sampling rate : 48.0 KHz
    Bit depth : 16 bits
    Compression mode : Lossy
    Stream size : 300 MiB (7%)
    Title : English DVD R1 DD 5.1
    Language : English
    Encoded date : UTC 2015-05-22 13:06:46
    Tagged date : UTC 2015-05-22 13:08:11
    Text #1
    ID : 11
    Format : Timed Text
    Muxing mode : sbtl
    Codec ID : tx3g
    Duration : 1h 13mn
    Bit rate mode : Variable
    Bit rate : 2 bps
    Stream size : 874 Bytes (0%)
    Title : Russian Forced Subtitle
    Language : Russian
    Encoded date : UTC 2015-05-22 13:06:46
    Tagged date : UTC 2015-05-22 13:07:49
    Text #2
    ID : 12
    Format : Timed Text
    Muxing mode : sbtl
    Codec ID : tx3g
    Duration : 1h 33mn
    Bit rate mode : Variable
    Bit rate : 74 bps
    Stream size : 50.7 KiB (0%)
    Title : Russian Subtitle
    Language : Russian
    Encoded date : UTC 2015-05-22 13:06:46
    Tagged date : UTC 2015-05-22 13:08:10
    Text #3
    ID : 13
    Format : Timed Text
    Muxing mode : sbtl
    Codec ID : tx3g
    Duration : 1h 33mn
    Bit rate mode : Variable
    Bit rate : 116 bps
    Stream size : 79.3 KiB (0%)
    Title : Ukrainian Subtitle
    Language : Ukrainian
    Encoded date : UTC 2015-05-22 13:06:46
    Tagged date : UTC 2015-05-22 13:08:10
    Text #4
    ID : 14
    Format : Timed Text
    Muxing mode : sbtl
    Codec ID : tx3g
    Duration : 1h 33mn
    Bit rate mode : Variable
    Bit rate : 82 bps
    Stream size : 55.9 KiB (0%)
    Title : English Subtitle
    Language : English
    Encoded date : UTC 2015-05-22 13:06:46
    Tagged date : UTC 2015-05-22 13:08:10
    Menu #1
    00:00:00.000 : 1
    00:06:42.000 : 2
    00:15:58.000 : 3
    00:27:03.000 : 4
    00:36:34.000 : 5
    00:40:15.000 : 6
    00:55:52.000 : 7
    01:02:32.000 : 8
    01:11:41.000 : 9
    01:23:27.000 : 10
    Menu #2
    ID : 15
    Codec ID : text
    Duration : 1h 33mn
    Title : Chapter Titles
    Language : English
    Encoded date : UTC 2015-05-22 13:08:11
    Tagged date : UTC 2015-05-22 13:08:11
    00:00:00.000 : 1
    00:06:42.000 : 2
    00:15:58.000 : 3
    00:27:03.000 : 4
    00:36:34.000 : 5
    00:40:15.000 : 6
    00:55:52.000 : 7
    01:02:32.000 : 8
    01:11:41.000 : 9
    01:23:27.000 : 10
    Bit rate mode : VBR

    Скриншоты 720p Release

    скрытый текст

    • Исходная WEB-DL взята из русского iTunes.
    • Сохранены оригинальные главы.
    • За Визгунова спасибо Lalola, за украинскую дорожку спасибо hurtom.
    • За DVD R5 спасибо nashe2006, за диск с озвучкой Гланца - Jotnar.
    -

    Релиз подготовлен для просмотра на Apple TV, iPad, iPhone, iPod Touch.
    Для просмотра данного релиза на компьютере с ОС Windows рекомендуется использовать VLC media player
    Скачать .torrent

    Скачать торрент-файл бесплатно и на максимальной скорости!

    Как скачивать? · Что такое торрент? · Рейтинг и ограничения

    !ВНИМАНИЕ!
    Сайт не распространяет и не хранит электронные версии произведений, а занимается лишь лишь предоставлением доступа к создаваемому пользователями каталогу ссылок на торрент-файлы, которые содержат только списки хеш-сумм, убедительная просьба с жалобами обращаться напрямую к пользователю. Файлы для обмена на трекере предоставлены пользователями сайта, и администрация не несёт ответственности за их содержание. Просьба не заливать файлы, защищенные авторскими правами, а также файлы нелегального содержания!


    _________________
    [Профиль] [ЛС]
    Показать сообщения:    
    Ответить на тему

    Текущее время: Сегодня, в 20:37

    Часовой пояс: GMT + 2



    Вы не можете начинать темы
    Вы не можете отвечать на сообщения
    Вы не можете редактировать свои сообщения
    Вы не можете удалять свои сообщения
    Вы не можете голосовать в опросах
    Вы не можете прикреплять файлы к сообщениям
    Вы не можете скачивать файлы