BitTorrentTracker PerecTracker.org
BitTorrentTracker PerecTracker.org
    
Регистрация  ·  Вход
 
 · 
Забыли пароль?

  • Титан: После гибели земли / Titan A.E. (Дон Блут, Гари Голдман, Арт Вителло / Don Bluth, Gary Goldman, Art Vitello) [2000, мультфильм, фантастика, боевик, приключения, HDTVRip] DUB

    Ответить на тему
     
    Автор Сообщение

    rechyn

    Создавать темы 04-Июл-2015 20:41

           

    [Цитировать]

    Титан: После гибели Земли
    Titan A.E.
    Страна: США
    Жанр: мультфильм, фантастика, боевик, приключения
    Продолжительность: 01:34:56
    Год выпуска: 2000-Перевод: Профессиональный (Дублированный)
    Русские субтитры: нет
    Режиссёр: Дон Блут, Гари Голдман, Арт Вителло / Don Bluth, Gary Goldman, Art Vitello-Роли озвучивали: Мэтт Дэймон, Билл Пуллман, Джон Легуизамо, Натан Лэйн, Джанин Гарофало, Дрю Бэрримор, Рон Перлман, Алекс Д. Линц, Тоун Лок, Джим Брюэр
    Роли дублировали: Сергей Быстрицкий, Александр Клюквин, Дмитрий Филимонов, Никита Прозоровский, Элеонора Прохницкая-Описание: В 3028 году Дреджи — агрессивная инопланетная раса уничтожила Землю. Пятнадцать лет спустя — юный Кейл узнает, что он владеет генетически запрограммированной картой на Титан — космический супер-корабль, в котором заключен секрет спасения человечества.
    Кейлу предстоит полное опасностей путешествие через вселенную в составе команды космического корабля «Валькирия», сражения со злыми Дреджами, и восстановление Титана — последней надежды всего человечества.-Релиз:
    | | -Качество: HDTVRip
    Формат: AVI
    Видео: 704x400 (1.76:1), 23,976 fps, XviD 65 ~1 769 kbps avg, 0.26 bit/pixel
    Аудио: 48 kHz, AC3 Dolby Digital, 3/2 (L,C,R,l,r) + LFE ch, ~448 kbps avg
    Субтитры: отсутствуют

    MI


    Общее
    Полное имя : E:\incarcare\rip gata\Titan.A.E.2000.HDTVRip.avi
    Формат : AVI
    Формат/Информация : Audio Video Interleave
    Размер файла : 1,48 Гбайт
    Продолжительность : 1 ч. 34 м.
    Общий поток : 2226 Кбит/сек
    Программа кодирования : VirtualDubMod 1.5.10.2 (build 2540/release)
    Библиотека кодирования : VirtualDubMod build 2540/release
    Видео
    Идентификатор : 0
    Формат : MPEG-4 Visual
    Профиль формата : Advanced Simple@L5
    Параметр BVOP формата : 1
    Параметр QPel формата : Нет
    Параметр GMC формата : Без точки перехода
    Параметр матрицы формата : Выборочная
    Идентификатор кодека : XVID
    Идентификатор кодека/Подсказка : XviD
    Продолжительность : 1 ч. 34 м.
    Битрейт : 1769 Кбит/сек
    Ширина : 704 пикселя
    Высота : 400 пикселей
    Соотношение сторон : 16:9
    Частота кадров : 23,976 кадра/сек
    Цветовое пространство : YUV
    Субдискретизация насыщенности : 4:2:0
    Битовая глубина : 8 бит
    Тип развёртки : Прогрессивная
    Метод сжатия : С потерями
    Бит/(Пиксели*Кадры) : 0.262
    Размер потока : 1,17 Гбайт (79%)
    Библиотека кодирования : XviD 65
    Аудио
    Идентификатор : 1
    Формат : AC-3
    Формат/Информация : Audio Coding 3
    Расширение режима : CM (complete main)
    Параметр Endianness формата : Big
    Идентификатор кодека : 2000
    Продолжительность : 1 ч. 34 м.
    Вид битрейта : Постоянный
    Битрейт : 448 Кбит/сек
    Каналы : 6 каналов
    Расположение каналов : Front: L C R, Side: L R, LFE
    Частота : 48,0 КГц
    Метод сжатия : С потерями
    Размер потока : 304 Мбайт (20%)
    Выравнивание : Разделение по промежуткам
    Продолжительность промежутка : 42 мс. (1,00 видеокадр)
    Время предзагрузки промежутка : 500 мс.

    Скриншоты

    Скачать .torrent

    Скачать торрент-файл бесплатно и на максимальной скорости!

    Как скачивать? · Что такое торрент? · Рейтинг и ограничения

    !ВНИМАНИЕ!
    Сайт не распространяет и не хранит электронные версии произведений, а занимается лишь лишь предоставлением доступа к создаваемому пользователями каталогу ссылок на торрент-файлы, которые содержат только списки хеш-сумм, убедительная просьба с жалобами обращаться напрямую к пользователю. Файлы для обмена на трекере предоставлены пользователями сайта, и администрация не несёт ответственности за их содержание. Просьба не заливать файлы, защищенные авторскими правами, а также файлы нелегального содержания!


    _________________
    [Профиль] [ЛС]
    Показать сообщения:    
    Ответить на тему

    Текущее время: Сегодня, в 08:01

    Часовой пояс: GMT + 2



    Вы не можете начинать темы
    Вы не можете отвечать на сообщения
    Вы не можете редактировать свои сообщения
    Вы не можете удалять свои сообщения
    Вы не можете голосовать в опросах
    Вы не можете прикреплять файлы к сообщениям
    Вы не можете скачивать файлы