BitTorrentTracker PerecTracker.org
BitTorrentTracker PerecTracker.org
    
Регистрация  ·  Вход
 
 · 
Забыли пароль?

  • Преждевременный человек (Абрам Роом) [1971, драма, экранизация, SATRip]

    Ответить на тему
     
    Автор Сообщение

    Light

    Создавать темы 04-Июл-2015 16:29

           

    [Цитировать]

    Преждевременный человекГод выпуска: 1971.
    Жанр: драма, экранизация.
    Продолжительность: 01:36:04.
    Режиссер: Абрам Роом.
    В ролях:
    Игорь Кваша, Анастасия Вертинская, Александр Калягин, Борис Иванов, Нина Шацкая, Валентин Смирнитский, Ирина Варлей, Анатолий Адоскин, Татьяна Лукьянова.
    Описание:
    По незаконченной пьесе Алексея Максимовича Горького "Яков Богомолов" о достоинстве человека, о том, что главный стимул жизни - творческий труд на благо людей.
    Инженер Богомолов так увлечен своей работой, что не замечает происходящего вокруг себя. Молодая жена изменяет ему, друзья предают, компаньоны не понимают...

    Доп. информация:
    Страна: СССР .
    Киностудия: Мосфильм.
    Автор сценария: Абрам Роом.
    Операторы: Леонид Крайненков, Владимир Степанов.
    Композитор: Александр Скрябин.
    Художник: Леонид Козлов.

    Еще постеры


    Качество: SATRip
    Формат: AVI
    Видео: 608x304 (2.00:1), 25 fps, XviD build 73 ~956 kbps avg, 0.21 bit/pixel
    Аудио: 48 kHz, MPEG Layer 3, 2 ch, ~128.00 kbps avg

    Отчет MI

    General
    Complete name : Prezhdevremennyj.chelovek.1971.XviD.SATRip.fenixclub_752.avi
    Format : AVI
    Format/Info : Audio Video Interleave
    File size : 752 MiB
    Duration : 1h 36mn
    Overall bit rate : 1 094 Kbps
    Writing application : VirtualDubMod 1.5.10.3 | www.virtualdub-fr.org || (build 2550/release)
    Writing library : VirtualDubMod build 2550/release
    Video
    ID : 0
    Format : MPEG-4 Visual
    Format profile : Advanced Simple@L5
    Format settings, BVOP : 2
    Format settings, QPel : No
    Format settings, GMC : No warppoints
    Format settings, Matrix : Custom
    Codec ID : XVID
    Codec ID/Hint : XviD
    Duration : 1h 36mn
    Bit rate : 957 Kbps
    Width : 608 pixels
    Height : 304 pixels
    Display aspect ratio : 2.000
    Frame rate : 25.000 fps
    Color space : YUV
    Chroma subsampling : 4:2:0
    Bit depth : 8 bits
    Scan type : Progressive
    Compression mode : Lossy
    Bits/(Pixel*Frame) : 0.207
    Stream size : 657 MiB (87%)
    Writing library : XviD 73
    Audio
    ID : 1
    Format : MPEG Audio
    Format version : Version 1
    Format profile : Layer 3
    Codec ID : 55
    Codec ID/Hint : MP3
    Duration : 1h 36mn
    Bit rate mode : Constant
    Bit rate : 128 Kbps
    Channel(s) : 2 channels
    Sampling rate : 48.0 KHz
    Compression mode : Lossy
    Stream size : 87.9 MiB (12%)
    Alignment : Aligned on interleaves
    Interleave, duration : 40 ms (1.00 video frame)
    Interleave, preload duratio : 504 ms
    Writing library : LAME3.99r
    Encoding settings : -m s -V 4 -q 2 -lowpass 17 -b 128
    Скриншоты

    Альтернативный хост

    Скачать .torrent

    Скачать торрент-файл бесплатно и на максимальной скорости!

    Как скачивать? · Что такое торрент? · Рейтинг и ограничения

    !ВНИМАНИЕ!
    Сайт не распространяет и не хранит электронные версии произведений, а занимается лишь лишь предоставлением доступа к создаваемому пользователями каталогу ссылок на торрент-файлы, которые содержат только списки хеш-сумм, убедительная просьба с жалобами обращаться напрямую к пользователю. Файлы для обмена на трекере предоставлены пользователями сайта, и администрация не несёт ответственности за их содержание. Просьба не заливать файлы, защищенные авторскими правами, а также файлы нелегального содержания!


    _________________
    [Профиль] [ЛС]
    Показать сообщения:    
    Ответить на тему

    Текущее время: Сегодня, в 16:28

    Часовой пояс: GMT + 2



    Вы не можете начинать темы
    Вы не можете отвечать на сообщения
    Вы не можете редактировать свои сообщения
    Вы не можете удалять свои сообщения
    Вы не можете голосовать в опросах
    Вы не можете прикреплять файлы к сообщениям
    Вы не можете скачивать файлы