BitTorrentTracker PerecTracker.org
BitTorrentTracker PerecTracker.org
    
Регистрация  ·  Вход
 
 · 
Забыли пароль?

  • Большая перемена (Алексей Коренев) [1972, комедия, экранизация, DVB]

    Ответить на тему
     
    Автор Сообщение

    Light

    Создавать темы 03-Июл-2015 19:29

           

    [Цитировать]

    Большая перемена (4 серии)
    03.07.15 торрент обновлен, в связи с повторной трансляцией из двух записей удалось скомпоновать видео без баннеров со вспышками (остался один во 2-й серии на 00:36:40), фраза "Ганжа, возьмите у меня сумки" присутствует
    Жанр: комедия, экранизация
    Год выпуска: 1972
    Продолжительность: 01:03:09 + 01:07:30 + 01:04:05 + 01:03:28
    Режиссёр: Алексей Коренев
    В ролях: Михаил Кононов, Наталья Гвоздикова, Юрий Кузьменков, Евгений Леонов, Ролан Быков, Александр Збруев, Светлана Крючкова, Савелий Крамаров, Наталия Богунова, Виктор Проскурин, Валерий Носик, Нина Маслова, Ирина Азер, Людмила Касаткина, Анастасия Георгиевская, Валерий Хлевинский, Валентина Талызина, Инна Жилина, Людмила Анциферова, Валентина Тэжик, Зоя Исаева, Михаил Яншин, Валентина Сперантова, Лев Дуров, Люсьена Овчинникова, Лев Дубов
    Описание: Телефильм по мотивам повести Г. Садовникова "Иду к людям".
    Молодой подающий надежды аспирант-историк, поссорившись со своей невестой (тоже аспирантом), бросает науку и идет работать в вечернюю школу.
    Доп. информация: Запись потока *.ts со спутников EUTELSAT 36A/B, 36° в.д. и Экспресс АМ7, 40° в.д., ремукс в *.mpg , удаление рекламы и монтаж программой VideoReDo.
    Качество видео: DVB
    Формат видео: MPEG-РS
    Видео: MPEG Video, 720x576 (4 : 3), 25,000 кадров/сек, 5229 Кбит/сек
    Аудио: MPEG Audio, 48,0 КГц, 256 Кбит/сек, 2 канала

    MediaInfo

    Общее
    Полное имя : D:\Torrent\БОЛЬШАЯ ПЕРЕМЕНА\БОЛЬШАЯ ПЕРЕМЕНА 1 (РОССИЯ 1).mpg
    Формат : MPEG-PS
    Размер файла : 2,47 Гбайт
    Продолжительность : 1 ч. 3 м.
    Режим общего битрейта : Переменный
    Общий поток : 5596 Кбит/сек
    Видео
    Идентификатор : 224 (0xE0)
    Формат : MPEG Video
    Версия формата : Version 2
    Профиль формата : Main@Main
    Параметр BVOP формата : Да
    Параметр матрицы формата : Выборочная
    Параметр GOP формата : M=3, N=15
    Продолжительность : 1 ч. 3 м.
    Вид битрейта : Переменный
    Битрейт : 5229 Кбит/сек
    Максимальный битрейт : 15,0 Мбит/сек
    Ширина : 720 пикселей
    Высота : 576 пикселей
    Соотношение сторон : 4:3
    Частота кадров : 25,000 кадров/сек
    Стандарт вещания : PAL
    Цветовое пространство : YUV
    Субдискретизация насыщенности : 4:2:0
    Битовая глубина : 8 бит
    Тип развёртки : Чересстрочная
    Порядок развёртки : Верхнее поле первое
    Метод сжатия : С потерями
    Бит/(Пиксели*Кадры) : 0.504
    Временной код первого кадра : 00:00:00:00
    Оригинал временного кода : Group of pictures header
    Размер потока : 2,31 Гбайт (93%)
    Аудио
    Идентификатор : 192 (0xC0)
    Формат : MPEG Audio
    Версия формата : Version 1
    Профиль формата : Layer 2
    Продолжительность : 1 ч. 3 м.
    Вид битрейта : Постоянный
    Битрейт : 256 Кбит/сек
    Каналы : 2 канала
    Частота : 48,0 КГц
    Метод сжатия : С потерями
    Задержка видео : 3 мс.
    Размер потока : 116 Мбайт (5%)
    Общее
    Полное имя : D:\Torrent\БОЛЬШАЯ ПЕРЕМЕНА\БОЛЬШАЯ ПЕРЕМЕНА 2 (РОССИЯ 1).mpg
    Формат : MPEG-PS
    Размер файла : 2,64 Гбайт
    Продолжительность : 1 ч. 7 м.
    Режим общего битрейта : Переменный
    Общий поток : 5605 Кбит/сек
    Видео
    Идентификатор : 224 (0xE0)
    Формат : MPEG Video
    Версия формата : Version 2
    Профиль формата : Main@Main
    Параметр BVOP формата : Да
    Параметр матрицы формата : Выборочная
    Параметр GOP формата : M=3, N=15
    Продолжительность : 1 ч. 7 м.
    Вид битрейта : Переменный
    Битрейт : 5237 Кбит/сек
    Максимальный битрейт : 15,0 Мбит/сек
    Ширина : 720 пикселей
    Высота : 576 пикселей
    Соотношение сторон : 4:3
    Частота кадров : 25,000 кадров/сек
    Стандарт вещания : PAL
    Цветовое пространство : YUV
    Субдискретизация насыщенности : 4:2:0
    Битовая глубина : 8 бит
    Тип развёртки : Чересстрочная
    Порядок развёртки : Верхнее поле первое
    Метод сжатия : С потерями
    Бит/(Пиксели*Кадры) : 0.505
    Временной код первого кадра : 00:00:00:00
    Оригинал временного кода : Group of pictures header
    Размер потока : 2,47 Гбайт (93%)
    Аудио
    Идентификатор : 192 (0xC0)
    Формат : MPEG Audio
    Версия формата : Version 1
    Профиль формата : Layer 2
    Продолжительность : 1 ч. 7 м.
    Вид битрейта : Постоянный
    Битрейт : 256 Кбит/сек
    Каналы : 2 канала
    Частота : 48,0 КГц
    Метод сжатия : С потерями
    Задержка видео : 19 мс.
    Размер потока : 124 Мбайт (5%)
    Общее
    Полное имя : D:\Torrent\БОЛЬШАЯ ПЕРЕМЕНА\БОЛЬШАЯ ПЕРЕМЕНА 3 (РОССИЯ 1).mpg
    Формат : MPEG-PS
    Размер файла : 2,50 Гбайт
    Продолжительность : 1 ч. 4 м.
    Режим общего битрейта : Переменный
    Общий поток : 5590 Кбит/сек
    Видео
    Идентификатор : 224 (0xE0)
    Формат : MPEG Video
    Версия формата : Version 2
    Профиль формата : Main@Main
    Параметр BVOP формата : Да
    Параметр матрицы формата : Выборочная
    Параметр GOP формата : M=3, N=15
    Продолжительность : 1 ч. 4 м.
    Вид битрейта : Переменный
    Битрейт : 5223 Кбит/сек
    Максимальный битрейт : 15,0 Мбит/сек
    Ширина : 720 пикселей
    Высота : 576 пикселей
    Соотношение сторон : 4:3
    Частота кадров : 25,000 кадров/сек
    Стандарт вещания : PAL
    Цветовое пространство : YUV
    Субдискретизация насыщенности : 4:2:0
    Битовая глубина : 8 бит
    Тип развёртки : Чересстрочная
    Порядок развёртки : Верхнее поле первое
    Метод сжатия : С потерями
    Бит/(Пиксели*Кадры) : 0.504
    Временной код первого кадра : 00:00:00:00
    Оригинал временного кода : Group of pictures header
    Размер потока : 2,34 Гбайт (93%)
    Аудио
    Идентификатор : 192 (0xC0)
    Формат : MPEG Audio
    Версия формата : Version 1
    Профиль формата : Layer 2
    Продолжительность : 1 ч. 4 м.
    Вид битрейта : Постоянный
    Битрейт : 256 Кбит/сек
    Каналы : 2 канала
    Частота : 48,0 КГц
    Метод сжатия : С потерями
    Задержка видео : 11 мс.
    Размер потока : 117 Мбайт (5%)
    Общее
    Полное имя : D:\Torrent\БОЛЬШАЯ ПЕРЕМЕНА\БОЛЬШАЯ ПЕРЕМЕНА 4 (РОССИЯ 1).mpg
    Формат : MPEG-PS
    Размер файла : 2,48 Гбайт
    Продолжительность : 1 ч. 3 м.
    Режим общего битрейта : Переменный
    Общий поток : 5599 Кбит/сек
    Видео
    Идентификатор : 224 (0xE0)
    Формат : MPEG Video
    Версия формата : Version 2
    Профиль формата : Main@Main
    Параметр BVOP формата : Да
    Параметр матрицы формата : Выборочная
    Параметр GOP формата : M=3, N=15
    Продолжительность : 1 ч. 3 м.
    Вид битрейта : Переменный
    Битрейт : 5231 Кбит/сек
    Максимальный битрейт : 15,0 Мбит/сек
    Ширина : 720 пикселей
    Высота : 576 пикселей
    Соотношение сторон : 4:3
    Частота кадров : 25,000 кадров/сек
    Стандарт вещания : PAL
    Цветовое пространство : YUV
    Субдискретизация насыщенности : 4:2:0
    Битовая глубина : 8 бит
    Тип развёртки : Чересстрочная
    Порядок развёртки : Верхнее поле первое
    Метод сжатия : С потерями
    Бит/(Пиксели*Кадры) : 0.505
    Временной код первого кадра : 00:00:00:00
    Оригинал временного кода : Group of pictures header
    Размер потока : 2,32 Гбайт (93%)
    Аудио
    Идентификатор : 192 (0xC0)
    Формат : MPEG Audio
    Версия формата : Version 1
    Профиль формата : Layer 2
    Продолжительность : 1 ч. 3 м.
    Вид битрейта : Постоянный
    Битрейт : 256 Кбит/сек
    Каналы : 2 канала
    Частота : 48,0 КГц
    Метод сжатия : С потерями
    Задержка видео : 7 мс.
    Размер потока : 116 Мбайт (5%)

    Скриншоты

    Скачать .torrent

    Скачать торрент-файл бесплатно и на максимальной скорости!

    Как скачивать? · Что такое торрент? · Рейтинг и ограничения

    !ВНИМАНИЕ!
    Сайт не распространяет и не хранит электронные версии произведений, а занимается лишь лишь предоставлением доступа к создаваемому пользователями каталогу ссылок на торрент-файлы, которые содержат только списки хеш-сумм, убедительная просьба с жалобами обращаться напрямую к пользователю. Файлы для обмена на трекере предоставлены пользователями сайта, и администрация не несёт ответственности за их содержание. Просьба не заливать файлы, защищенные авторскими правами, а также файлы нелегального содержания!


    _________________
    [Профиль] [ЛС]
    Показать сообщения:    
    Ответить на тему

    Текущее время: Сегодня, в 08:54

    Часовой пояс: GMT + 2



    Вы не можете начинать темы
    Вы не можете отвечать на сообщения
    Вы не можете редактировать свои сообщения
    Вы не можете удалять свои сообщения
    Вы не можете голосовать в опросах
    Вы не можете прикреплять файлы к сообщениям
    Вы не можете скачивать файлы