BitTorrentTracker PerecTracker.org
BitTorrentTracker PerecTracker.org
    
Регистрация  ·  Вход
 
 · 
Забыли пароль?

  • Том и Джерри: Шпионские игры / Tom and Jerry: Spy Quest (Спайк Брандт/Spike Brandt, Тони Червоне/Tony Cervone) [2015, Мультипликация, WEB-DLRip] MVO

    Ответить на тему
     
    Автор Сообщение

    rechyn

    Создавать темы 03-Июл-2015 19:29

           

    [Цитировать]

    Том и Джерри: Шпионские игры / Tom and Jerry: Spy Quest
    Страна: США
    Жанр: Мультипликация
    Продолжительность: 01:12:53
    Год выпуска: 2015
    Перевод: Профессиональный (многоголосый закадровый)
    Русские субтитры: нет-Режиссёр: Спайк Брандт/Spike Brandt, Тони Червоне/Tony Cervone
    Роли озвучивали: Риз Хартвиг, Арни Пэнтоджа, Джеймс Хонг, Эрик Боза, Мишель Д. Хенкс-Описание: Ещё один день на пляже для проблемной парочки, пока Том и Джерри не сталкиваются со шпионами Джонни Квестом, Хаджи и Бандитом. Когда давний враг семьи Квестов, доктор Зин, узнаёт о том, что у Бентона Квеста есть орудие решения энергетических проблем мира, он посылает армию злобных кошек украсть его и взять в плен Бентона вместе с охранником Рэйсом Бэнноном. Джонни и его новые пушистые друзья отправляются на опасные поиски отца в попытке спасти мир!-Качество: WEB-DLRip
    Формат: AVI
    Видео: MPEG4, XviD, 720x400 (16:9), 23.976 fps, 2 291 Kbps (0.332 bit/pixel)
    Аудио: AC-3, 48.0 KHz, 6 ch, 384 Kbps, CBR
    Субтитры: отсутствуют
    Семпл: Забираем тут

    Подробные технические данные

    GeneralComplete name :Tom and Jerry - Spy Quest 2015 WEB-DLRip.aviFormat : AVIFormat/Info : Audio Video InterleaveFile size : 1.37 GiBDuration : 1h 12mnOverall bit rate : 2 685 KbpsWriting application : VirtualDubMod 1.5.10.3 | www.virtualdub-fr.org || (build 2550/release)
    VideoID : 0Format : MPEG-4 VisualFormat profile : Advanced Simple@L5Format settings, BVOP : 3Format settings, QPel : NoFormat settings, GMC : No warppointsFormat settings, Matrix : Default (H.263)Codec ID : XVIDCodec ID/Hint : XviDDuration : 1h 12mnBit rate : 2 291 KbpsWidth : 720 pixelsHeight : 400 pixelsDisplay aspect ratio : 16:9Frame rate : 23.976 fpsColor space : YUVChroma subsampling : 4:2:0Bit depth : 8 bitsScan type : ProgressiveCompression mode : LossyBits/(Pixel*Frame) : 0.332Stream size : 1.17 GiB (85%)Writing library : XviD 73
    AudioID : 1Format : AC-3Format/Info : Audio Coding 3Mode extension : CM (complete main)Format settings, Endianness : BigCodec ID : 2000Duration : 1h 12mnBit rate mode : ConstantBit rate : 384 KbpsChannel(s) : 6 channelsChannel positions : Front: L C R, Side: L R, LFESampling rate : 48.0 KHzCompression mode : LossyStream size : 200 MiB (14%)Alignment : Split accross interleavesInterleave, duration : 42 ms (1.00 video frame)Interleave, preload duratio : 500 ms

    Скриншоты


    Скачать .torrent

    Скачать торрент-файл бесплатно и на максимальной скорости!

    Как скачивать? · Что такое торрент? · Рейтинг и ограничения

    !ВНИМАНИЕ!
    Сайт не распространяет и не хранит электронные версии произведений, а занимается лишь лишь предоставлением доступа к создаваемому пользователями каталогу ссылок на торрент-файлы, которые содержат только списки хеш-сумм, убедительная просьба с жалобами обращаться напрямую к пользователю. Файлы для обмена на трекере предоставлены пользователями сайта, и администрация не несёт ответственности за их содержание. Просьба не заливать файлы, защищенные авторскими правами, а также файлы нелегального содержания!


    _________________
    [Профиль] [ЛС]

    BOSS

    Создавать темы 03-Июл-2015 21:47 (спустя 2 часа 18 минут)

           

    [Цитировать]

    http://perectracker.org/viewtopic.php?t=13872
    [Профиль] [ЛС]
    Показать сообщения:    
    Ответить на тему

    Текущее время: Сегодня, в 20:27

    Часовой пояс: GMT + 2



    Вы не можете начинать темы
    Вы не можете отвечать на сообщения
    Вы не можете редактировать свои сообщения
    Вы не можете удалять свои сообщения
    Вы не можете голосовать в опросах
    Вы не можете прикреплять файлы к сообщениям
    Вы не можете скачивать файлы