BitTorrentTracker PerecTracker.org
BitTorrentTracker PerecTracker.org
    
Регистрация  ·  Вход
 
 · 
Забыли пароль?

  • Французская сюита / Suite française (Сол Дибб / Saul Dibb) [2014, Великобритания, Франция, Канада, Военный, Драма, Мелодрама, WEB-DLRip] DVO (Coldfilm)

    Ответить на тему
     
    Автор Сообщение

    Light

    Создавать темы 03-Июл-2015 15:17

           

    [Цитировать]

    Французская сюита / Suite françaiseПо роману Ирины НемировскойСтрана: Великобритания, Франция, Канада
    Жанр: Военный, Драма, Мелодрама
    Год выпуска: 2014
    Продолжительность: 01:42:55
    Перевод: Любительский (двухголосый закадровый) Coldfilm
    Cубтитры: Арабские
    Режиссер: Сол Дибб / Saul Dibb
    В ролях: Мишель Уильямс, Маттиас Шонартс, Кристин Скотт Томас, Марго Робби, Эрик Годон, Дебора Файндлей, Рут Уилсон, Сэм Райли, Винсен Дом, Саймон Даттон
    Описание: В центре романтической истории времён Второй мировой войны — молодая девушка, живущая вместе со свекровью в оккупированной фашистами Франции. Нелюбимый муж ушёл на поле боя, и героиня влюбляется в немецкого офицера. Их объединяет любовь к музыке: она играет на фортепиано, а немец — бывший композитор.

    Качество видео: WEB-DLRip
    Формат видео: AVI
    Видео: Xvid, 720x320, 23.976 fps, ~1700 kb/s
    Аудио: MP3, 48.0 KHz, 2 ch, 192 kb/s, CBR
    Формат субтитров: hardsub (неотключаемые)

    Обложка диска

    MediaInfo

    F:\Видео\Кино\ZAR\Suite.Francaise.avi
    General
    Complete name : F:\Видео\Кино\ZAR\Suite.Francaise.avi
    Format : AVI
    Format/Info : Audio Video Interleave
    File size : 1.37 GiB
    Duration : 1h 43mn
    Overall bit rate : 1 901 Kbps
    Writing application : VirtualDubMod 1.5.10.2 (build 2540/release)
    Writing library : VirtualDubMod build 2540/release
    Video #0
    ID : 0
    Format : MPEG-4 Visual
    Format profile : Advanced Simple@L5
    Format settings, BVOP : 4
    Format settings, QPel : No
    Format settings, GMC : 3 warppoints
    Format settings, Matrix : Default (MPEG)
    Codec ID : XVID
    Codec ID/Hint : XviD
    Duration : 1h 43mn
    Bit rate : 1 700 Kbps
    Width : 720 pixels
    Height : 320 pixels
    Display aspect ratio : 2.25:1
    Frame rate : 23.976 fps
    Color space : YUV
    Chroma subsampling : 4:2:0
    Bit depth : 8 bits
    Scan type : Progressive
    Compression mode : Lossy
    Bits/(Pixel*Frame) : 0.308
    Stream size : 1.23 GiB (89%)
    Writing library : XviD 1.2.1 (UTC 2008-12-04)
    Audio #1
    ID : 1
    Format : MPEG Audio
    Format version : Version 1
    Format profile : Layer 3
    Mode : Joint stereo
    Codec ID : 55
    Codec ID/Hint : MP3
    Duration : 1h 43mn
    Bit rate mode : Constant
    Bit rate : 192 Kbps
    Channel(s) : 2 channels
    Sampling rate : 48.0 KHz
    Compression mode : Lossy
    Stream size : 142 MiB (10%)
    Alignment : Aligned on interleaves
    Interleave, duration : 42 ms (1.00 video frame)
    Interleave, preload duration : 504 ms
    Writing library : LAME3.99.5

    Скриншот c названием фильма

    Скриншоты

    Скачать .torrent

    Скачать торрент-файл бесплатно и на максимальной скорости!

    Как скачивать? · Что такое торрент? · Рейтинг и ограничения

    !ВНИМАНИЕ!
    Сайт не распространяет и не хранит электронные версии произведений, а занимается лишь лишь предоставлением доступа к создаваемому пользователями каталогу ссылок на торрент-файлы, которые содержат только списки хеш-сумм, убедительная просьба с жалобами обращаться напрямую к пользователю. Файлы для обмена на трекере предоставлены пользователями сайта, и администрация не несёт ответственности за их содержание. Просьба не заливать файлы, защищенные авторскими правами, а также файлы нелегального содержания!


    _________________
    [Профиль] [ЛС]
    Показать сообщения:    
    Ответить на тему

    Текущее время: Сегодня, в 04:15

    Часовой пояс: GMT + 2



    Вы не можете начинать темы
    Вы не можете отвечать на сообщения
    Вы не можете редактировать свои сообщения
    Вы не можете удалять свои сообщения
    Вы не можете голосовать в опросах
    Вы не можете прикреплять файлы к сообщениям
    Вы не можете скачивать файлы