BitTorrentTracker PerecTracker.org
BitTorrentTracker PerecTracker.org
    
Регистрация  ·  Вход
 
 · 
Забыли пароль?

  • Трактористы (Иван Пырьев) [1939, музыкальная комедия, SATRip] полная оригинальная версия

    Ответить на тему
     
    Автор Сообщение

    Light

    Создавать темы 03-Июл-2015 02:41

           

    [Цитировать]

    ТрактористыГод выпуска: 1939.
    Жанр: музыкальная комедия.
    Продолжительность: 01:22:55.
    Режиссер: Иван Пырьев.
    В ролях:
    Марина Ладынина, Николай Крючков, Борис Андреев, Степан Каюков, Пётр Алейников, Владимир Колчин, Ольга Боровикова, Р. Днепрова-Чайка, П. Валерианов, Алексей Долинин, Пётр Савин, Артавазд Кефчиян.
    Описание:
    Середина 1930-х годов. Демобилизованный танкист-дальневосточник Клим Ярко устраивается на работу в украинский колхоз, где живёт давно полюбившаяся ему Марьяна Бажан. Но Марьяна - уже знатная трактористка района, орденоносец и у неё много поклонников, от которых она мечтает избавиться, выдумав любовь к силачу и лодырю Назару. В сложную ситуацию попадает простодушный Клим, но, в конце концов, искренностью и трудолюбием завоевывает симпатии всего колхоза и любовь знаменитой Марьяны.
    Доп. информация:
    Страна: СССР .
    Киностудия: Мосфильм и Киевская киностудия.
    Премьера: 3 июля 1939 года.
    Автор сценария: Евгений Помещиков.
    Оператор: Александр Гальперин.
    Композиторы: Даниил Покрасс, Дмитрий Покрасс.
    Художник: Владимир Каплуновский.

    Еще постеры


    Качество: SATRip
    Формат: AVI
    Видео: 688x528 (1.30:1), 25 fps, XviD build 73 ~2344 kbps avg, 0.26 bit/pixel
    Аудио: 48 kHz, AC3 Dolby Digital, 2/0 (L,R) ch, ~192 kbps

    Отчет MI

    General
    Complete name : Traktoristy.1939.XviD.SATRip.fenixclub_1,47.avi
    Format : AVI
    Format/Info : Audio Video Interleave
    File size : 1.47 GiB
    Duration : 1h 22mn
    Overall bit rate : 2 547 Kbps
    Writing application : VirtualDubMod 1.5.10.3 | www.virtualdub-fr.org || (build 2550/release)
    Writing library : VirtualDubMod build 2550/release
    Video
    ID : 0
    Format : MPEG-4 Visual
    Format profile : Advanced Simple@L5
    Format settings, BVOP : 2
    Format settings, QPel : No
    Format settings, GMC : No warppoints
    Format settings, Matrix : Custom
    Codec ID : XVID
    Codec ID/Hint : XviD
    Duration : 1h 22mn
    Bit rate : 2 345 Kbps
    Width : 688 pixels
    Height : 528 pixels
    Display aspect ratio : 4:3
    Frame rate : 25.000 fps
    Color space : YUV
    Chroma subsampling : 4:2:0
    Bit depth : 8 bits
    Scan type : Progressive
    Compression mode : Lossy
    Bits/(Pixel*Frame) : 0.258
    Stream size : 1.36 GiB (92%)
    Writing library : XviD 73
    Audio
    ID : 1
    Format : AC-3
    Format/Info : Audio Coding 3
    Mode extension : CM (complete main)
    Format settings, Endianness : Big
    Codec ID : 2000
    Duration : 1h 22mn
    Bit rate mode : Constant
    Bit rate : 192 Kbps
    Channel(s) : 2 channels
    Channel positions : Front: L R
    Sampling rate : 48.0 KHz
    Compression mode : Lossy
    Stream size : 114 MiB (8%)
    Alignment : Split accross interleaves
    Interleave, duration : 40 ms (1.00 video frame)
    Interleave, preload duratio : 500 ms.

    Скриншоты

    Альтернативный хост

    Скачать .torrent

    Скачать торрент-файл бесплатно и на максимальной скорости!

    Как скачивать? · Что такое торрент? · Рейтинг и ограничения

    !ВНИМАНИЕ!
    Сайт не распространяет и не хранит электронные версии произведений, а занимается лишь лишь предоставлением доступа к создаваемому пользователями каталогу ссылок на торрент-файлы, которые содержат только списки хеш-сумм, убедительная просьба с жалобами обращаться напрямую к пользователю. Файлы для обмена на трекере предоставлены пользователями сайта, и администрация не несёт ответственности за их содержание. Просьба не заливать файлы, защищенные авторскими правами, а также файлы нелегального содержания!


    _________________
    [Профиль] [ЛС]
    Показать сообщения:    
    Ответить на тему

    Текущее время: Сегодня, в 00:29

    Часовой пояс: GMT + 2



    Вы не можете начинать темы
    Вы не можете отвечать на сообщения
    Вы не можете редактировать свои сообщения
    Вы не можете удалять свои сообщения
    Вы не можете голосовать в опросах
    Вы не можете прикреплять файлы к сообщениям
    Вы не можете скачивать файлы