BitTorrentTracker PerecTracker.org
BitTorrentTracker PerecTracker.org
    
Регистрация  ·  Вход
 
 · 
Забыли пароль?

  • Наш общий друг (Иван Пырьев) [1961, драма, экранизация, SATRip]

    Ответить на тему
     
    Автор Сообщение

    Light

    Создавать темы 02-Июл-2015 01:29

           

    [Цитировать]

    Наш общий другГод выпуска: 1961.
    Жанр: драма, экранизация.
    Продолжительность: 01:54:22.
    Режиссер: Иван Пырьев.
    В ролях:
    Виктор Авдюшко, Наталья Фатеева, Аркадий Аркадьев, Екатерина Литвиненко, Борис Юрченко, Владимир Дорофеев, Нина Шорина, Григорий Тесля, Сергей Филиппов, Юрий Белов, Раиса Куркина.
    Описание:
    По повести Виктора Логинова «На то она и любовь...».
    В каждом колхозе обязательно найдется «летописец». В кубанском колхозе таким летописцем был Лукьянюк. Именно его заметка о том, что телятница Лиза (Наталья Фатеева) моет молоком лицо, попала на страницы районной газеты. Честная и трудолюбивая девушка нашла защиту у парторга Прохора Корнийца (Виктор Авдюшко), а потом за чуткость и смелость полюбила его. Но парторг женат, у него растет сын...

    Доп. информация:
    Страна: СССР .
    Киностудия: Мосфильм.
    Премьера: 12 марта 1962 года.
    Авторы сценария: Виктор Логинов, Иван Пырьев.
    Оператор: Валентин Павлов.
    Композитор: Юрий Левитин.
    Художник: Феликс Ясюкевич.

    Еще постеры


    Качество: SATRip
    Формат: AVI
    Видео: 688x528 (1.30:1), 25 fps, XviD build 73 ~1648 kbps avg, 0.18 bit/pixel
    Аудио: 48 kHz, AC3 Dolby Digital, 2/0 (L,R) ch, ~192 kbps

    Отчет MI

    General
    Complete name : Nash.obwiy.drug.1961.XviD.SATRip.fenixclub_1,48.avi
    Format : AVI
    Format/Info : Audio Video Interleave
    File size : 1.48 GiB
    Duration : 1h 54mn
    Overall bit rate : 1 851 Kbps
    Writing application : VirtualDubMod 1.5.10.3 | www.virtualdub-fr.org || (build 2550/release)
    Writing library : VirtualDubMod build 2550/release
    Video
    ID : 0
    Format : MPEG-4 Visual
    Format profile : Advanced Simple@L5
    Format settings, BVOP : 2
    Format settings, QPel : No
    Format settings, GMC : No warppoints
    Format settings, Matrix : Custom
    Codec ID : XVID
    Codec ID/Hint : XviD
    Duration : 1h 54mn
    Bit rate : 1 649 Kbps
    Width : 688 pixels
    Height : 528 pixels
    Display aspect ratio : 4:3
    Frame rate : 25.000 fps
    Color space : YUV
    Chroma subsampling : 4:2:0
    Bit depth : 8 bits
    Scan type : Progressive
    Compression mode : Lossy
    Bits/(Pixel*Frame) : 0.182
    Stream size : 1.32 GiB (89%)
    Writing library : XviD 73
    Audio
    ID : 1
    Format : AC-3
    Format/Info : Audio Coding 3
    Mode extension : CM (complete main)
    Format settings, Endianness : Big
    Codec ID : 2000
    Duration : 1h 54mn
    Bit rate mode : Constant
    Bit rate : 192 Kbps
    Channel(s) : 2 channels
    Channel positions : Front: L R
    Sampling rate : 48.0 KHz
    Compression mode : Lossy
    Stream size : 157 MiB (10%)
    Alignment : Split accross interleaves
    Interleave, duration : 40 ms (1.00 video frame)
    Interleave, preload duratio : 500 ms.
    Скриншоты

    Альтернативный хост

    Скачать .torrent

    Скачать торрент-файл бесплатно и на максимальной скорости!

    Как скачивать? · Что такое торрент? · Рейтинг и ограничения

    !ВНИМАНИЕ!
    Сайт не распространяет и не хранит электронные версии произведений, а занимается лишь лишь предоставлением доступа к создаваемому пользователями каталогу ссылок на торрент-файлы, которые содержат только списки хеш-сумм, убедительная просьба с жалобами обращаться напрямую к пользователю. Файлы для обмена на трекере предоставлены пользователями сайта, и администрация не несёт ответственности за их содержание. Просьба не заливать файлы, защищенные авторскими правами, а также файлы нелегального содержания!


    _________________
    [Профиль] [ЛС]
    Показать сообщения:    
    Ответить на тему

    Текущее время: Сегодня, в 15:55

    Часовой пояс: GMT + 2



    Вы не можете начинать темы
    Вы не можете отвечать на сообщения
    Вы не можете редактировать свои сообщения
    Вы не можете удалять свои сообщения
    Вы не можете голосовать в опросах
    Вы не можете прикреплять файлы к сообщениям
    Вы не можете скачивать файлы