BitTorrentTracker PerecTracker.org
BitTorrentTracker PerecTracker.org
    
Регистрация  ·  Вход
 
 · 
Забыли пароль?

  • Энни / Annie (Уилл Глак / Will Gluck) [2014, США, мюзикл, семейный, BDRip-AVC] Dub + Sub Rus, Ukr, Eng + Original Eng

    Ответить на тему
     
    Автор Сообщение

    Light

    Создавать темы 02-Июл-2015 01:29

           

    [Цитировать]

    Энни | Annie
    «Принцессами не рождаются»
    -Страна: США
    Жанр: мюзикл, семейный
    Год выпуска: 2014
    Продолжительность: 01:58:23
    Перевод: Профессиональный (дублированный)
    Cубтитры: Русские (полные, форсированные), Ukr (Forced), Английские (full, SDH, SDH-Colored)
    Оригинальная аудиодорожка: английский
    Режиссер: Уилл Глак / Will Gluck
    В ролях: Куавенжане Уоллис, Джейми Фокс, Роуз Бирн, Кэмерон Диаз, Бобби Каннавале, Адевале Акинойе-Агбаже, Дэвид Зайас, Зои Маргарет Коллетти, Николетт Пьерини, Иден Дункан-Смит, Мила Кунис, Эштон Кутчер, Майкл Дж. Фокс, Рианна-ОписаниеОчаровательная и остроумная Энни живет в неприглядном приюте для сирот под присмотром зловредной воспитательницы. Но однажды, после встречи с богатым и успешным бизнесменом, ее унылая жизнь переворачивается…-Сэмпл

    IMDb: 5.20 (17 669)
    Качество видео: BDRip-AVC HDClub Blu-Ray CEE
    Формат видео: MKV
    Видео: AVC 2383 Kbps 1104 x 462 (2.390) 23.976 fps
    Аудио: AC-3 448 Kbps 6 channels, 48.0 KHz DUB Rus
    Аудио 2: AC-3 448 Kbps 6 channels, 48.0 KHz Eng
    Формат субтитров: softsub (SRT)
    MediaInfo | Log

    Log

    x264 [info]: frame I:2173 Avg QP:16.86 size: 71858
    x264 [info]: frame P:43145 Avg QP:18.67 size: 24438
    x264 [info]: frame B:124986 Avg QP:21.53 size: 7700
    x264 [info]: consecutive B-frames: 2.9% 4.9% 9.2% 47.3% 15.5% 16.4% 2.0% 1.3% 0.2% 0.1% 0.0% 0.1% 0.0%
    x264 [info]: mb I I16..4: 5.6% 69.7% 24.8%
    x264 [info]: mb P I16..4: 0.8% 10.5% 2.1% P16..4: 29.8% 33.8% 12.9% 2.5% 0.3% skip: 7.4%
    x264 [info]: mb B I16..4: 0.1% 1.2% 0.2% B16..8: 33.0% 20.7% 3.6% direct: 4.7% skip:36.5% L0:38.6% L1:45.0% BI:16.4%
    x264 [info]: 8x8 transform intra:76.4% inter:61.6%
    x264 [info]: direct mvs spatial:100.0% temporal:0.0%
    x264 [info]: coded y,uvDC,uvAC intra: 89.4% 91.5% 77.1% inter: 19.2% 22.3% 10.4%
    x264 [info]: i16 v,h,dc,p: 24% 19% 2% 55%
    x264 [info]: i8 v,h,dc,ddl,ddr,vr,hd,vl,hu: 12% 9% 5% 9% 13% 14% 13% 13% 13%
    x264 [info]: i4 v,h,dc,ddl,ddr,vr,hd,vl,hu: 13% 11% 4% 8% 14% 14% 13% 11% 12%
    x264 [info]: i8c dc,h,v,p: 39% 21% 20% 20%
    x264 [info]: Weighted P-Frames: Y:3.5% UV:2.0%
    x264 [info]: ref P L0: 51.8% 12.0% 15.7% 5.5% 4.2% 3.2% 2.5% 1.5% 1.3% 1.1% 1.1% 0.2% 0.0%
    x264 [info]: ref B L0: 81.7% 8.6% 4.0% 1.7% 1.4% 0.9% 0.8% 0.5% 0.3% 0.2%
    x264 [info]: ref B L1: 94.7% 5.3%
    x264 [info]: kb/s:2447.21
    x264 [total]: encoded 170304 frames, 10.80 fps, 2447.21 kb/s, duration 4:22:44.01
    Format : Matroska
    Format version : Version 4 / Version 2
    File size : 2.77 GiB
    Duration : 1h 58mn
    Overall bit rate : 3 346 Kbps
    Encoded date : UTC 2015-07-01 17:21:31
    Writing application : mkvmerge v6.7.0 ('Back to the Ground') 32bit built on Jan 8 2014 15:03:17
    Writing library : libebml v1.3.0 + libmatroska v1.4.1
    Video
    ID : 1
    Format : AVC
    Format/Info : Advanced Video Codec
    Format profile : High@L4.1
    Format settings, CABAC : Yes
    Format settings, ReFrames : 11 frames
    Codec ID : V_MPEG4/ISO/AVC
    Duration : 1h 58mn
    Bit rate : 2 383 Kbps
    Width : 1 104 pixels
    Height : 462 pixels
    Display aspect ratio : 2.40:1
    Frame rate mode : Constant
    Frame rate : 23.976 fps
    Color space : YUV
    Chroma subsampling : 4:2:0
    Bit depth : 8 bits
    Scan type : Progressive
    Bits/(Pixel*Frame) : 0.195
    Stream size : 1.97 GiB (71%)
    Title : Annie (2014) [perectracker.org]
    Writing library : x264 core 146 r2538kMod 121396c
    Encoding settings : cabac=1 / ref=11 / deblock=1:-2:-1 / analyse=0x3:0x133 / me=umh / subme=11 / psy=1 / fade_compensate=0.00 / psy_rd=1.00:0.05 / mixed_ref=1 / me_range=32 / chroma_me=1 / trellis=2 / 8x8dct=1 / cqm=0 / deadzone=21,11 / fast_pskip=0 / chroma_qp_offset=-3 / threads=12 / lookahead_threads=3 / sliced_threads=0 / nr=0 / decimate=1 / interlaced=0 / bluray_compat=0 / constrained_intra=0 / fgo=0 / bframes=12 / b_pyramid=2 / b_adapt=2 / b_bias=0 / direct=3 / weightb=1 / open_gop=0 / weightp=2 / keyint=250 / keyint_min=23 / scenecut=40 / intra_refresh=0 / rc_lookahead=80 / rc=crf / mbtree=0 / crf=18.0000 / qcomp=0.60 / qpmin=0 / qpmax=69 / qpstep=4 / vbv_maxrate=50000 / vbv_bufsize=62500 / crf_max=0.0 / nal_hrd=none / filler=0 / ip_ratio=1.40 / pb_ratio=1.30 / aq=3:0.90
    Language : English
    Default : Yes
    Forced : No
    Audio #1
    ID : 2
    Format : AC-3
    Format/Info : Audio Coding 3
    Mode extension : CM (complete main)
    Format settings, Endianness : Big
    Codec ID : A_AC3
    Duration : 1h 58mn
    Bit rate mode : Constant
    Bit rate : 448 Kbps
    Channel(s) : 6 channels
    Channel positions : Front: L C R, Side: L R, LFE
    Sampling rate : 48.0 KHz
    Compression mode : Lossy
    Stream size : 379 MiB (13%)
    Title : Dub
    Language : Russian
    Default : Yes
    Forced : No
    Audio #2
    ID : 3
    Format : AC-3
    Format/Info : Audio Coding 3
    Mode extension : CM (complete main)
    Format settings, Endianness : Big
    Codec ID : A_AC3
    Duration : 1h 58mn
    Bit rate mode : Constant
    Bit rate : 448 Kbps
    Channel(s) : 6 channels
    Channel positions : Front: L C R, Side: L R, LFE
    Sampling rate : 48.0 KHz
    Compression mode : Lossy
    Stream size : 379 MiB (13%)
    Title : Original
    Language : English
    Default : No
    Forced : No
    Text #1
    ID : 4
    Format : UTF-8
    Codec ID : S_TEXT/UTF8
    Codec ID/Info : UTF-8 Plain Text
    Title : Forced
    Language : Russian
    Default : Yes
    Forced : No
    Text #2
    ID : 5
    Format : UTF-8
    Codec ID : S_TEXT/UTF8
    Codec ID/Info : UTF-8 Plain Text
    Title : FULL
    Language : Russian
    Default : No
    Forced : No
    Text #3
    ID : 6
    Format : UTF-8
    Codec ID : S_TEXT/UTF8
    Codec ID/Info : UTF-8 Plain Text
    Title : Forced
    Language : Ukrainian
    Default : No
    Forced : No
    Text #4
    ID : 7
    Format : UTF-8
    Codec ID : S_TEXT/UTF8
    Codec ID/Info : UTF-8 Plain Text
    Title : Full
    Language : English
    Default : No
    Forced : No
    Text #5
    ID : 8
    Format : UTF-8
    Codec ID : S_TEXT/UTF8
    Codec ID/Info : UTF-8 Plain Text
    Title : SDH
    Language : English
    Default : No
    Forced : No
    Text #6
    ID : 9
    Format : UTF-8
    Codec ID : S_TEXT/UTF8
    Codec ID/Info : UTF-8 Plain Text
    Title : SDH-Colored
    Language : English
    Default : No
    Forced : No
    Menu
    00:00:00.000 : en:00:00:00.000
    00:12:16.402 : en:00:12:16.402
    00:18:20.725 : en:00:18:20.725
    00:22:25.261 : en:00:22:25.261
    00:28:43.722 : en:00:28:43.722
    00:37:24.534 : en:00:37:24.534
    00:42:23.916 : en:00:42:23.916
    00:49:39.518 : en:00:49:39.518
    00:55:20.734 : en:00:55:20.734
    01:02:00.050 : en:01:02:00.050
    01:07:13.696 : en:01:07:13.696
    01:16:46.101 : en:01:16:46.101
    01:21:31.136 : en:01:21:31.136
    01:27:21.695 : en:01:27:21.695
    01:37:46.069 : en:01:37:46.069
    01:45:48.592 : en:01:45:48.592

    Скриншоты




    Скачать .torrent

    Скачать торрент-файл бесплатно и на максимальной скорости!

    Как скачивать? · Что такое торрент? · Рейтинг и ограничения

    !ВНИМАНИЕ!
    Сайт не распространяет и не хранит электронные версии произведений, а занимается лишь лишь предоставлением доступа к создаваемому пользователями каталогу ссылок на торрент-файлы, которые содержат только списки хеш-сумм, убедительная просьба с жалобами обращаться напрямую к пользователю. Файлы для обмена на трекере предоставлены пользователями сайта, и администрация не несёт ответственности за их содержание. Просьба не заливать файлы, защищенные авторскими правами, а также файлы нелегального содержания!


    _________________
    [Профиль] [ЛС]
    Показать сообщения:    
    Ответить на тему

    Текущее время: Сегодня, в 12:47

    Часовой пояс: GMT + 2



    Вы не можете начинать темы
    Вы не можете отвечать на сообщения
    Вы не можете редактировать свои сообщения
    Вы не можете удалять свои сообщения
    Вы не можете голосовать в опросах
    Вы не можете прикреплять файлы к сообщениям
    Вы не можете скачивать файлы