BitTorrentTracker PerecTracker.org
BitTorrentTracker PerecTracker.org
    
Регистрация  ·  Вход
 
 · 
Забыли пароль?

  • Недетские игры / Come Out and Play (Макинов / Makinov) [2012, Мексика, триллер, ужасы, BDRip] MVO (R5)

    Ответить на тему
     
    Автор Сообщение

    Light

    Создавать темы 02-Июл-2015 01:29

           

    [Цитировать]

    Недетские игры / Come Out and Play-Год выпуска: 2012
    Страна: Мексика
    Жанр: триллер, ужасы
    Продолжительность: 01:26:49
    Перевод: Профессиональный (многоголосый, закадровый) R5
    Субтитры: нет-Режиссер: Макинов / Makinov
    В ролях: Винесса Шоу, Эбон Мосс-Бакрак, Даниэль Хименес Качо, Херардо Тарасена, Алехандро Альварес
    О фильме: Молодая супружеская пара, Бет и Фрэнсис, находясь в отпуске, отправляются на красивый, но очень отдаленный остров. Бет беременна, и молодожены хотят насладиться последним своим совместным отдыхом перед рождением ребенка. По прибытии они замечают, что, несмотря на огромное количество местных детей, взрослые здесь практически отсутствуют. Первоначально они списывают этот факт на недавно прошедший фестиваль, но очень скоро понимают, что есть другое, более зловещее всему объяснение. И теперь они оба должны противостоять террору и принимать опасные и сложные решения, чтобы попытаться убраться с этого острова живыми.-Релиз:
    Автор: sociolog_melvas
    Качество: BDRip (источник: NataJA19vc / BDRemux / 1080p)
    Формат: AVI
    Видео: 704x320 (2.20:1), 23,976 fps, XviD build 65 ~1936 kbps avg, 0.36 bit/pixel
    Аудио: 48 kHz, AC3 Dolby Digital, 3/2 (L,C,R,l,r) + LFE ch, ~448.00 kbps avg
    Размер: 1486.88 Mb (1/3 DVD-R)
    Скачать: Семпл-

    Кадры из фильма


    -

    Mi

    Формат : AVI
    Формат/Информация : Audio Video Interleave
    Размер файла : 1,45 Гбайт
    Продолжительность : 1 ч. 26 м.
    Общий поток : 2394 Кбит/сек
    Название фильма : Недетские игры / Come Out and Play (2012) BDRip
    Режиссёр : sociolog_melvas
    Жанр : 01.07.2015
    Программа кодирования : VirtualDubMod 1.5.10.2 (build 2540/release)
    Примечание : триллер, ужасы
    Видео
    Идентификатор : 0
    Формат : MPEG-4 Visual
    Профиль формата : Advanced Simple@L5
    Параметр BVOP формата : 1
    Параметр QPel формата : Нет
    Параметр GMC формата : Без точки перехода
    Параметр матрицы формата : Выборочная
    Идентификатор кодека : XVID
    Идентификатор кодека/Подсказка : XviD
    Продолжительность : 1 ч. 26 м.
    Битрейт : 1937 Кбит/сек
    Ширина : 704 пикселя
    Высота : 320 пикселей
    Соотношение сторон : 2,2:1
    Частота кадров : 23,976 кадра/сек
    Цветовое пространство : YUV
    Субдискретизация насыщенности : 4:2:0
    Битовая глубина : 8 бит
    Тип развёртки : Прогрессивная
    Метод сжатия : С потерями
    Бит/(Пиксели*Кадры) : 0.359
    Размер потока : 1,17 Гбайт (81%)
    Библиотека кодирования : XviD 65
    Аудио
    Идентификатор : 1
    Формат : AC-3
    Формат/Информация : Audio Coding 3
    Расширение режима : CM (complete main)
    Параметр Endianness формата : Big
    Идентификатор кодека : 2000
    Продолжительность : 1 ч. 26 м.
    Вид битрейта : Постоянный
    Битрейт : 448 Кбит/сек
    Каналы : 6 каналов
    Расположение каналов : Front: L C R, Side: L R, LFE
    Частота : 48,0 КГц
    Битовая глубина : 16 бит
    Метод сжатия : С потерями
    Размер потока : 278 Мбайт (19%)
    Выравнивание : Разделение по промежуткам
    Продолжительность промежутка : 42 мс. (1,00 видеокадр)
    Время предзагрузки промежутка : 500 мс.
    -
    Скачать .torrent

    Скачать торрент-файл бесплатно и на максимальной скорости!

    Как скачивать? · Что такое торрент? · Рейтинг и ограничения

    !ВНИМАНИЕ!
    Сайт не распространяет и не хранит электронные версии произведений, а занимается лишь лишь предоставлением доступа к создаваемому пользователями каталогу ссылок на торрент-файлы, которые содержат только списки хеш-сумм, убедительная просьба с жалобами обращаться напрямую к пользователю. Файлы для обмена на трекере предоставлены пользователями сайта, и администрация не несёт ответственности за их содержание. Просьба не заливать файлы, защищенные авторскими правами, а также файлы нелегального содержания!


    _________________
    [Профиль] [ЛС]
    Показать сообщения:    
    Ответить на тему

    Текущее время: Сегодня, в 11:59

    Часовой пояс: GMT + 2



    Вы не можете начинать темы
    Вы не можете отвечать на сообщения
    Вы не можете редактировать свои сообщения
    Вы не можете удалять свои сообщения
    Вы не можете голосовать в опросах
    Вы не можете прикреплять файлы к сообщениям
    Вы не можете скачивать файлы