BitTorrentTracker PerecTracker.org
BitTorrentTracker PerecTracker.org
    
Регистрация  ·  Вход
 
 · 
Забыли пароль?

  • Шофер на один рейс (Вадим Зобин) [1981, комедия, мелодрама, DVB]

    Ответить на тему
     
    Автор Сообщение

    Light

    Создавать темы 01-Июл-2015 17:05

           

    [Цитировать]

    Шофер на один рейс (2 серии)
    01/07/15 торрент обновлен, добавил в раздачу запись трансляции ТК "Россия". Картинка явно лучше, чем у "Ностальгии", битрейт выше - но есть серьезный минус - на видео имеются баннеры. Смотрим скриншоты.
    Жанр: комедия, мелодрама
    Год выпуска: 1981
    Продолжительность: 01:07:11 + 01:08:39
    Режиссёр: Вадим Зобин
    В ролях: Лидия Федосеева-Шукшина, Олег Ефремов, Лидия Сухаревская, Наталья Вавилова, Юрий Дуванов, Вадим Андреев, Валентина Якунина, Любовь Соколова, Наталья Кустинская, Владимир Прохоров, Георгий Георгиу, Владимир Сошальский
    Описание: Шофер Михаил знакомится с приехавшей в Москву знатной колхозницей Софьей, помогает ей в покупке автомобиля и соглашается доставить его в колхоз.
    Доп. информация: Запись потока *.ts со спутников EUTELSAT 36A/B, 36° в.д. и Экспресс АМ7, 40° в.д., ремукс в *.mpg программой VideoReDo.
    Качество видео: DVB
    Формат видео: MPEG-PS
    Видео Ностальгия: MPEG Video, 720x576 (4:3), 25,000 кадров/сек, 4 832 Кбит/сек
    Аудио Ностальгия: MPEG Audio, 48,0 КГц, 192 Кбит/сек, 2 канала
    Видео Россия: MPEG Video, 720x576 (4:3), 25,000 кадров/сек, 5256 Кбит/сек
    Аудио Россия: MPEG Audio, 48,0 КГц, 256 Кбит/сек, 2 канала

    MediaInfo Ностальгия

    General
    Complete name : D:\Torrent\Шофер на один рейс\ШОФЕР НА ОДИН РЕЙС 1 (Ностальгия).mpg
    Format : MPEG-PS
    File size : 2.41 GiB
    Duration : 1h 7mn
    Overall bit rate mode : Variable
    Overall bit rate : 5 126 Kbps
    Video
    ID : 224 (0xE0)
    Format : MPEG Video
    Format version : Version 2
    Format profile : Main@Main
    Format settings, BVOP : Yes
    Format settings, Matrix : Custom
    Format settings, GOP : M=3, N=36
    Duration : 1h 7mn
    Bit rate mode : Variable
    Bit rate : 4 832 Kbps
    Maximum bit rate : 15.0 Mbps
    Width : 720 pixels
    Height : 576 pixels
    Display aspect ratio : 4:3
    Frame rate : 25.000 fps
    Standard : PAL
    Color space : YUV
    Chroma subsampling : 4:2:0
    Bit depth : 8 bits
    Scan type : Interlaced
    Scan order : Top Field First
    Compression mode : Lossy
    Bits/(Pixel*Frame) : 0.466
    Stream size : 2.27 GiB (94%)
    Audio
    ID : 192 (0xC0)
    Format : MPEG Audio
    Format version : Version 1
    Format profile : Layer 2
    Duration : 1h 7mn
    Bit rate mode : Constant
    Bit rate : 192 Kbps
    Channel(s) : 2 channels
    Sampling rate : 48.0 KHz
    Compression mode : Lossy
    Stream size : 92.3 MiB (4%)
    General
    Complete name : D:\Torrent\Шофер на один рейс\ШОФЕР НА ОДИН РЕЙС 2 (Ностальгия).mpg
    Format : MPEG-PS
    File size : 2.46 GiB
    Duration : 1h 8mn
    Overall bit rate mode : Variable
    Overall bit rate : 5 127 Kbps
    Video
    ID : 224 (0xE0)
    Format : MPEG Video
    Format version : Version 2
    Format profile : Main@Main
    Format settings, BVOP : Yes
    Format settings, Matrix : Custom
    Format settings, GOP : M=1, N=37
    Duration : 1h 8mn
    Bit rate mode : Variable
    Bit rate : 4 833 Kbps
    Maximum bit rate : 15.0 Mbps
    Width : 720 pixels
    Height : 576 pixels
    Display aspect ratio : 4:3
    Frame rate : 25.000 fps
    Standard : PAL
    Color space : YUV
    Chroma subsampling : 4:2:0
    Bit depth : 8 bits
    Scan type : Interlaced
    Scan order : Top Field First
    Compression mode : Lossy
    Bits/(Pixel*Frame) : 0.466
    Stream size : 2.32 GiB (94%)
    Audio
    ID : 192 (0xC0)
    Format : MPEG Audio
    Format version : Version 1
    Format profile : Layer 2
    Duration : 1h 8mn
    Bit rate mode : Constant
    Bit rate : 192 Kbps
    Channel(s) : 2 channels
    Sampling rate : 48.0 KHz
    Compression mode : Lossy
    Stream size : 94.3 MiB (4%)

    MediaInfo Россия

    Общее
    Полное имя : D:\MPG\ШОФЁР НА ОДИН РЕЙС 1 (РОССИЯ 40).mpg
    Формат : MPEG-PS
    Размер файла : 2,64 Гбайт
    Продолжительность : 1 ч. 7 м.
    Режим общего битрейта : Переменный
    Общий поток : 5624 Кбит/сек
    Видео
    Идентификатор : 224 (0xE0)
    Формат : MPEG Video
    Версия формата : Version 2
    Профиль формата : Main@Main
    Параметр BVOP формата : Да
    Параметр матрицы формата : Выборочная
    Параметр GOP формата : M=3, N=15
    Продолжительность : 1 ч. 7 м.
    Вид битрейта : Переменный
    Битрейт : 5256 Кбит/сек
    Максимальный битрейт : 15,0 Мбит/сек
    Ширина : 720 пикселей
    Высота : 576 пикселей
    Соотношение сторон : 4:3
    Частота кадров : 25,000 кадров/сек
    Стандарт вещания : PAL
    Цветовое пространство : YUV
    Субдискретизация насыщенности : 4:2:0
    Битовая глубина : 8 бит
    Тип развёртки : Чересстрочная
    Порядок развёртки : Верхнее поле первое
    Метод сжатия : С потерями
    Бит/(Пиксели*Кадры) : 0.507
    Временной код первого кадра : 00:00:00:00
    Оригинал временного кода : Group of pictures header
    Размер потока : 2,47 Гбайт (93%)
    Аудио
    Идентификатор : 192 (0xC0)
    Формат : MPEG Audio
    Версия формата : Version 1
    Профиль формата : Layer 2
    Продолжительность : 1 ч. 7 м.
    Вид битрейта : Постоянный
    Битрейт : 256 Кбит/сек
    Каналы : 2 канала
    Частота : 48,0 КГц
    Метод сжатия : С потерями
    Задержка видео : 11 мс.
    Размер потока : 123 Мбайт (5%)
    Общее
    Полное имя : D:\MPG\ШОФЁР НА ОДИН РЕЙС 2 (РОССИЯ 40).mpg
    Формат : MPEG-PS
    Размер файла : 2,70 Гбайт
    Продолжительность : 1 ч. 8 м.
    Режим общего битрейта : Переменный
    Общий поток : 5624 Кбит/сек
    Видео
    Идентификатор : 224 (0xE0)
    Формат : MPEG Video
    Версия формата : Version 2
    Профиль формата : Main@Main
    Параметр BVOP формата : Да
    Параметр матрицы формата : Выборочная
    Параметр GOP формата : M=3, N=15
    Продолжительность : 1 ч. 8 м.
    Вид битрейта : Переменный
    Битрейт : 5256 Кбит/сек
    Максимальный битрейт : 15,0 Мбит/сек
    Ширина : 720 пикселей
    Высота : 576 пикселей
    Соотношение сторон : 4:3
    Частота кадров : 25,000 кадров/сек
    Стандарт вещания : PAL
    Цветовое пространство : YUV
    Субдискретизация насыщенности : 4:2:0
    Битовая глубина : 8 бит
    Тип развёртки : Чересстрочная
    Порядок развёртки : Верхнее поле первое
    Метод сжатия : С потерями
    Бит/(Пиксели*Кадры) : 0.507
    Временной код первого кадра : 00:00:00:00
    Оригинал временного кода : Group of pictures header
    Размер потока : 2,52 Гбайт (93%)
    Аудио
    Идентификатор : 192 (0xC0)
    Формат : MPEG Audio
    Версия формата : Version 1
    Профиль формата : Layer 2
    Продолжительность : 1 ч. 8 м.
    Вид битрейта : Постоянный
    Битрейт : 256 Кбит/сек
    Каналы : 2 канала
    Частота : 48,0 КГц
    Метод сжатия : С потерями
    Задержка видео : 19 мс.
    Размер потока : 126 Мбайт (5%)

    Скриншоты Ностальгия

    Скриншоты Россия

    Скачать .torrent

    Скачать торрент-файл бесплатно и на максимальной скорости!

    Как скачивать? · Что такое торрент? · Рейтинг и ограничения

    !ВНИМАНИЕ!
    Сайт не распространяет и не хранит электронные версии произведений, а занимается лишь лишь предоставлением доступа к создаваемому пользователями каталогу ссылок на торрент-файлы, которые содержат только списки хеш-сумм, убедительная просьба с жалобами обращаться напрямую к пользователю. Файлы для обмена на трекере предоставлены пользователями сайта, и администрация не несёт ответственности за их содержание. Просьба не заливать файлы, защищенные авторскими правами, а также файлы нелегального содержания!


    _________________
    [Профиль] [ЛС]
    Показать сообщения:    
    Ответить на тему

    Текущее время: Сегодня, в 19:22

    Часовой пояс: GMT + 2



    Вы не можете начинать темы
    Вы не можете отвечать на сообщения
    Вы не можете редактировать свои сообщения
    Вы не можете удалять свои сообщения
    Вы не можете голосовать в опросах
    Вы не можете прикреплять файлы к сообщениям
    Вы не можете скачивать файлы