BitTorrentTracker PerecTracker.org
BitTorrentTracker PerecTracker.org
    
Регистрация  ·  Вход
 
 · 
Забыли пароль?

  • Я люблю (Леонид Луков)[1936, социальная драма, DVDRip]

    Ответить на тему
     
    Автор Сообщение

    Light

    Создавать темы 01-Июл-2015 12:53

           

    [Цитировать]

    Я люблюГод выпуска: 1936.
    Жанр: социальная драма.
    Продолжительность: 01:10:49.
    Режиссер: Леонид Луков.
    В ролях:
    Александр Чистяков, Иван Чувелев, Даниил Введенский, Владимир Гардин, Наталья Ужвий, Вера Шершнёва, Александр Антонов, Гуля Королёва, Федя Левицкий.
    Описание:
    По мотивам одноименного романа Александра Авдеенко.
    Когда-то давно отец Остапа оставил нищую деревню и пришел на заработки в Донбасс. Выстроенная Никанором хибарка положила начало шахтерскому поселку Собачеевки. Остап пошел по пути отца, тридцать лет гнувшего спину на хозяина шахты. А когда отца выгнали с работы, Остап понял, что бессмысленно винить в своих бедах только мастера. Встретившись с рабочим-революционером Гарбузом бунтарь-одиночка осознает силу рабочей солидарности и становится зачинателем революционного движения среди шахтеров Донбасса...

    Доп. информация:
    Страна: СССР .
    Киностудия: Украинфильм.
    Премьера: 9 мая 1936 года.
    Автор сценария: Александр Авдеенко.
    Оператор: Иван Шеккер.
    Композитор: Иван Шишов.
    Художник: Мориц Уманский.

    Еще постеры

    Релиз
    Рип с этой раздачи.
    Большое спасибо AVV_UA за предоставленый DVD для рипа!!!

    Качество: DVDRip
    Формат: AVI
    Видео: 688x528 (1.30:1), 25 fps, XviD build 73 ~2002 kbps avg, 0.22 bit/pixel
    Аудио: 48 kHz, AC3 Dolby Digital, 2/0 (L,R) ch, ~192 kbps

    Отчет MI

    General
    Complete name : Ya.lyublyu.1936.XviD.DVDRip.fenixclub_1.08.avi
    Format : AVI
    Format/Info : Audio Video Interleave
    File size : 1.09 GiB
    Duration : 1h 10mn
    Overall bit rate : 2 204 Kbps
    Writing application : VirtualDubMod 1.5.10.3 | www.virtualdub-fr.org || (build 2550/release)
    Writing library : VirtualDubMod build 2550/release
    Video
    ID : 0
    Format : MPEG-4 Visual
    Format profile : Advanced Simple@L5
    Format settings, BVOP : 2
    Format settings, QPel : No
    Format settings, GMC : No warppoints
    Format settings, Matrix : Custom
    Codec ID : XVID
    Codec ID/Hint : XviD
    Duration : 1h 10mn
    Bit rate : 2 003 Kbps
    Width : 688 pixels
    Height : 528 pixels
    Display aspect ratio : 4:3
    Frame rate : 25.000 fps
    Color space : YUV
    Chroma subsampling : 4:2:0
    Bit depth : 8 bits
    Scan type : Progressive
    Compression mode : Lossy
    Bits/(Pixel*Frame) : 0.221
    Stream size : 1 014 MiB (91%)
    Writing library : XviD 73
    Audio
    ID : 1
    Format : AC-3
    Format/Info : Audio Coding 3
    Mode extension : CM (complete main)
    Format settings, Endianness : Big
    Codec ID : 2000
    Duration : 1h 10mn
    Bit rate mode : Constant
    Bit rate : 192 Kbps
    Channel(s) : 1 channel
    Channel positions : Front: C
    Sampling rate : 48.0 KHz
    Compression mode : Lossy
    Stream size : 97.3 MiB (9%)
    Alignment : Split accross interleaves
    Interleave, duration : 40 ms (1.00 video frame)
    Interleave, preload duratio : 500 ms.
    Скриншоты

    Альтернативный хост

    Скачать .torrent

    Скачать торрент-файл бесплатно и на максимальной скорости!

    Как скачивать? · Что такое торрент? · Рейтинг и ограничения

    !ВНИМАНИЕ!
    Сайт не распространяет и не хранит электронные версии произведений, а занимается лишь лишь предоставлением доступа к создаваемому пользователями каталогу ссылок на торрент-файлы, которые содержат только списки хеш-сумм, убедительная просьба с жалобами обращаться напрямую к пользователю. Файлы для обмена на трекере предоставлены пользователями сайта, и администрация не несёт ответственности за их содержание. Просьба не заливать файлы, защищенные авторскими правами, а также файлы нелегального содержания!


    _________________
    [Профиль] [ЛС]
    Показать сообщения:    
    Ответить на тему

    Текущее время: Сегодня, в 23:19

    Часовой пояс: GMT + 2



    Вы не можете начинать темы
    Вы не можете отвечать на сообщения
    Вы не можете редактировать свои сообщения
    Вы не можете удалять свои сообщения
    Вы не можете голосовать в опросах
    Вы не можете прикреплять файлы к сообщениям
    Вы не можете скачивать файлы