BitTorrentTracker PerecTracker.org
BitTorrentTracker PerecTracker.org
    
Регистрация  ·  Вход
 
 · 
Забыли пароль?

  • Фотограф / Fotograf (Вальдемар Кшистек / Waldemar Krzystek) [2014, Польша, Россия, Триллер, детектив, драма, DVDRip] VO

    Ответить на тему
     
    Автор Сообщение

    Light

    Создавать темы 01-Июл-2015 12:53

           

    [Цитировать]

    Фотограф / Fotograf
    Страна: Польша, Россия
    Жанр: Триллер, детектив, драма
    Год выпуска: 2014
    Продолжительность: 01:47:16
    Перевод: Одноголосый закадровый Павел Морозов aka PashaUp (на польскую речь)
    Cубтитры: нет
    Режиссёр: Вальдемар Кшистек
    В ролях: Татьяна Арнтгольц, Александр Балуев, Марат Башаров, Алексей Горбунов, Андрей Косташ, Алёна Бабенко, Дмитрий Ульянов, Артём Ткаченко, Эвклид Кюрдзидис, Нодари Джанелидзе, Адам Воронович
    Описание: Фотограф - это неуловимый серийный убийца, действующий в наши дни в Москве. Каждый раз он оставляет на месте преступления пронумерованные метки, аналогичные тем, что используют полицейские на месте преступления. Расследование приводит в старые бараки Красной армии в Легнице и к событиям, произошедшим там в 70-е годы.

    Качество видео: DVDRip [Исходник: DVD-9]
    Формат видео: AVI
    Видео: XviD, 720х304 (2.35:1), 1753 Кбит/с, 25 кадр/с
    Аудио: Русский, Dolby AC3, 48000 Гц, 192 Кбит/с, 2 канала (Стерео)

    Автор рипа - ivandubskoj

    MediaInfo

    General
    Complete name : Fotograf.2014.DVDRip.avi
    Format : AVI
    Format/Info : Audio Video Interleave
    File size : 1.46 GiB
    Duration : 1h 47mn
    Overall bit rate : 1 954 Kbps
    Writing application : VirtualDubMod 1.5.10.3 | www.virtualdub-fr.org || (build 2550/release)
    Writing library : VirtualDubMod build 2550/release
    Copyright : rip by ivandubskoj
    Video
    ID : 0
    Format : MPEG-4 Visual
    Format profile : Advanced Simple@L5
    Format settings, BVOP : 1
    Format settings, QPel : No
    Format settings, GMC : No warppoints
    Format settings, Matrix : Custom
    Codec ID : XVID
    Codec ID/Hint : XviD
    Duration : 1h 47mn
    Bit rate : 1 753 Kbps
    Width : 720 pixels
    Height : 304 pixels
    Display aspect ratio : 2.35:1
    Frame rate : 25.000 fps
    Color space : YUV
    Chroma subsampling : 4:2:0
    Bit depth : 8 bits
    Scan type : Progressive
    Compression mode : Lossy
    Bits/(Pixel*Frame) : 0.320
    Stream size : 1.31 GiB (90%)
    Writing library : XviD 73
    Audio
    ID : 1
    Format : AC-3
    Format/Info : Audio Coding 3
    Mode extension : CM (complete main)
    Codec ID : 2000
    Duration : 1h 47mn
    Bit rate mode : Constant
    Bit rate : 192 Kbps
    Channel(s) : 2 channels
    Channel positions : Front: L R
    Sampling rate : 48.0 KHz
    Bit depth : 16 bits
    Compression mode : Lossy
    Stream size : 147 MiB (10%)
    Alignment : Split accross interleaves
    Interleave, duration : 40 ms (1.00 video frame)
    Interleave, preload duration : 500 ms

    Скриншот c названием фильма

    Скриншоты

    Скачать .torrent

    Скачать торрент-файл бесплатно и на максимальной скорости!

    Как скачивать? · Что такое торрент? · Рейтинг и ограничения

    !ВНИМАНИЕ!
    Сайт не распространяет и не хранит электронные версии произведений, а занимается лишь лишь предоставлением доступа к создаваемому пользователями каталогу ссылок на торрент-файлы, которые содержат только списки хеш-сумм, убедительная просьба с жалобами обращаться напрямую к пользователю. Файлы для обмена на трекере предоставлены пользователями сайта, и администрация не несёт ответственности за их содержание. Просьба не заливать файлы, защищенные авторскими правами, а также файлы нелегального содержания!


    _________________
    [Профиль] [ЛС]
    Показать сообщения:    
    Ответить на тему

    Текущее время: Сегодня, в 04:23

    Часовой пояс: GMT + 2



    Вы не можете начинать темы
    Вы не можете отвечать на сообщения
    Вы не можете редактировать свои сообщения
    Вы не можете удалять свои сообщения
    Вы не можете голосовать в опросах
    Вы не можете прикреплять файлы к сообщениям
    Вы не можете скачивать файлы