BitTorrentTracker PerecTracker.org
BitTorrentTracker PerecTracker.org
    
Регистрация  ·  Вход
 
 · 
Забыли пароль?

  • Стрингер / Nightcrawler (Дэн Гилрой / Dan Gilroy) [2013, США, триллер, криминал, BDRip] MVO (Омикрон) + AVO (Сербин)

    Ответить на тему
     
    Автор Сообщение

    Light

    Создавать темы 01-Июл-2015 00:20

           

    [Цитировать]

    Стрингер / Nightcrawler
    «Секреты Лос-Анджелеса»
    -Год выпуска: 2013
    Выпущено: США / Bold Films, Nightcrawler
    Жанр: триллер, криминал
    Продолжительность: 01:58:05
    Перевод (1): Профессиональный (многоголосый закадровый) Студия «Омикрон»
    Перевод (2): Авторский (одноголосый закадровый) Юрий Сербин
    Cубтитры: нет-Режиссер:
    Дэн Гилрой / Dan Gilroy-В ролях:
    Джейк Джилленхол (Louis Bloom), Рене Руссо (Nina Romina), Риз Ахмед (Rick), Билл Пэкстон (Joe Loder), Майкл Пападжон (Security Guard), Марко Родригес (Scrapyard Owner), Джеймс Хуанг (Marcus Mayhem Video), Кент Шокнек (Kent Shocknek), Пэт Харви (Pat Harvey), Шэрон Тэй (Sharon Tay)-Описание:
    Луи Блум пытается найти работу. После того как он видит, как любительская съемочная группа снимает автомобильную аварию, он меняет ворованный велосипед на камеру и снимает последствия угона автомобиля, чтобы продать местной телевизионной компании. Директор новостей Нина покупает запись и убеждает его продолжить работу. Вскоре становится ясно, что ради по-настоящему стоящего материала Луи не остановится ни перед чем…-Релиз групп
    | | IMDB | КиноПоиск | Сэмпл |-Качество: BDRip [BDRemux | 1080p | Кинозал]
    Формат: AVI
    Видео: 720x304 (2.37:1), 23.976 fps, XviD build 73 ~1375 kbps avg, 0.26 bit/pixel
    Аудио #1: 48 kHz, AC3 Dolby Digital, 3/2 (L,C,R,l,r) + LFE ch, ~384.00 kbps avg (MVO) Студия «Омикрон»-(1.46) *В переводе Юрия Сербина присутствует ненормативная лексика-Аудио #2: 48 kHz, AC3 Dolby Digital, 3/2 (L,C,R,l,r) + LFE ch, ~384.00 kbps avg (AVO) Юрий Сербин отдельно-

    Скриншоты

    MediaInfo

    General
    Complete name                            : D:\Stringer_2013_BDRip_by_Dalemake.avi
    Format                                   : AVI
    Format/Info                              : Audio Video Interleave
    File size                                : 1.46 GiB
    Duration                                 : 1h 58mn
    Overall bit rate                         : 1 768 Kbps
    Writing application                      : VirtualDubMod 1.5.10.3 | www.virtualdub-fr.org || (build 2550/release)
    Writing library                          : VirtualDubMod build 2550/release
    Video
    ID                                       : 0
    Format                                   : MPEG-4 Visual
    Format profile                           : Advanced Simple@L5
    Format settings, BVOP                    : 1
    Format settings, QPel                    : No
    Format settings, GMC                     : No warppoints
    Format settings, Matrix                  : Custom
    Codec ID                                 : XVID
    Codec ID/Hint                            : XviD
    Duration                                 : 1h 58mn
    Bit rate                                 : 1 376 Kbps
    Width                                    : 720 pixels
    Height                                   : 304 pixels
    Display aspect ratio                     : 2.35:1
    Frame rate                               : 23.976 fps
    Color space                              : YUV
    Chroma subsampling                       : 4:2:0
    Bit depth                                : 8 bits
    Scan type                                : Progressive
    Compression mode                         : Lossy
    Bits/(Pixel*Frame)                       : 0.262
    Stream size                              : 1.13 GiB (78%)
    Writing library                          : XviD 73
    Audio
    ID                                       : 1
    Format                                   : AC-3
    Format/Info                              : Audio Coding 3
    Mode extension                           : CM (complete main)
    Format settings, Endianness              : Big
    Codec ID                                 : 2000
    Duration                                 : 1h 57mn
    Bit rate mode                            : Constant
    Bit rate                                 : 384 Kbps
    Channel(s)                               : 6 channels
    Channel positions                        : Front: L C R, Side: L R, LFE
    Sampling rate                            : 48.0 KHz
    Bit depth                                : 16 bits
    Compression mode                         : Lossy
    Stream size                              : 323 MiB (22%)
    Alignment                                : Split accross interleaves
    Interleave, duration                     : 42 ms (1.00 video frame)
    Interleave, preload duration             : 500 ms

    Благодарности

    Перевод и озвучка "Омикрон" выполнены в рамках сервиса "Озвучивание" HDCLUB. Спонсоры: Merwos, andruhan, rubak, Fenix_Zz, rden, vadiz, Ravox, The_EviL, PoHHaN, UraniUm, w15, dfghrul, Pertcev, kirill_sky, Fireware, walledol, Maike, anton48, Be_Cos, Bolt4445, Max_U, october2, urvakanner, Coolioner, SANDOR, 3gas, bibendumm, dudrin, joshua123, KeTroY, sum, EgOr1997, alibabay911.
    Перевод Юрия Сербина выполнены в рамках сервиса "Озвучивание" HDCLUB. Спонсоры: xRym, MyxAmoP, TPB, gelom, lemonarium, tambov68, Ex1l, exact, Luka69, gross1978, mercyful_fate, whip93, Tagansky, нокомент, Semvlk, EgOr1997, save2x2.

    Сравнение

    http://perectracker.org/viewtopic.php?t=5032327
    http://screenshotcomparison.com/comparison/133119 + авторский перевод отдельно
    + завышеный спектр при таком битрейте
    -
    Скачать .torrent

    Скачать торрент-файл бесплатно и на максимальной скорости!

    Как скачивать? · Что такое торрент? · Рейтинг и ограничения

    !ВНИМАНИЕ!
    Сайт не распространяет и не хранит электронные версии произведений, а занимается лишь лишь предоставлением доступа к создаваемому пользователями каталогу ссылок на торрент-файлы, которые содержат только списки хеш-сумм, убедительная просьба с жалобами обращаться напрямую к пользователю. Файлы для обмена на трекере предоставлены пользователями сайта, и администрация не несёт ответственности за их содержание. Просьба не заливать файлы, защищенные авторскими правами, а также файлы нелегального содержания!


    _________________
    [Профиль] [ЛС]
    Показать сообщения:    
    Ответить на тему

    Текущее время: Сегодня, в 06:31

    Часовой пояс: GMT + 2



    Вы не можете начинать темы
    Вы не можете отвечать на сообщения
    Вы не можете редактировать свои сообщения
    Вы не можете удалять свои сообщения
    Вы не можете голосовать в опросах
    Вы не можете прикреплять файлы к сообщениям
    Вы не можете скачивать файлы