BitTorrentTracker PerecTracker.org
BitTorrentTracker PerecTracker.org
    
Регистрация  ·  Вход
 
 · 
Забыли пароль?

  • Урод в замке / Псих в замке / Чудовище из замка / Castle Freak (Стюарт Гордон / Stuart Gordon) [1995, США, ужасы, драма, BDRemux 1080p] 2x AVO (Гаврилов, Визгунов) + Original Eng + Sub Rus

    Ответить на тему
     
    Автор Сообщение

    Flirldrerve

    Создавать темы 30-Июн-2015 11:44

           

    [Цитировать]

    Урод в замке / Castle Freak
    Год выпуска: 1995
    Страна: США
    Жанр: ужасы, драма
    Продолжительность: 01:34:44
    Перевод1: Авторский (одноголосый закадровый)(А.Гаврилов)
    Перевод2: Авторский (одноголосый закадровый)(С.Визгунов)
    Субтитры: русские
    Оригинальная аудиодорожка: английский
    Режиссер: Стюарт Гордон / Stuart Gordon
    В ролях: Джеффри Комбс, Барбара Крэмптон, Джонатан Фуллер, Массимо Саркьелли, Элизабет Каза, Лука Зингаретти
    Описание: Обычная американская семья узнает, что она унаследовала замок 12 века в Италии. Как только она приезжают в него, начинают происходить странные вещи. Необычные звуки доносятся из подземелья. Слепая дочь начинает рассказывать, что ночью к ней кто-то приходил. Когда находят два зверски изуродованных трупа, семье приходится покинуть замок. Успеют ли они это сделать?

    Качество: BDRemux 1080p
    Формат: MKV
    Видео кодек: H.264
    Аудио кодек: AC3, DTS-HD MA, FLAC
    Видео: 1920 x 1080; MPEG-4 AVC Video / 23000 kbps / 1080p / 23.976 fps / 16:9 / High Profile 4.1
    Аудио1: Русский, AC3 2.0 192 Kbps 48,0 КГц(Gavrilov)
    Аудио2: Русский, AC3 2.0 192 Kbps 48,0 КГц(Vizgunov)
    Аудио3: English / DTS-HD Master Audio / 5.1 / 48 kHz / 2065 kbps / 16-bit (DTS Core: 5.1 / 48 kHz / 1509 kbps / 16-bit)(Original)
    Аудио4: English / FLAC / 2.0 / 48 kHz / ~643 kbps (Original)
    Субтитры:Soft Sub (SRT)
    Главы

    MediaInfo

    Общее
    Уникальный идентификатор : 246018748531990358946568906608011521574 (0xB9157CCAB14D102BB57235F2722E2E26)
    Полное имя : D:\Castle.Freak.1995.BDRemux.1080p.2xRus.Eng.mkv
    Формат : Matroska
    Версия формата : Version 4 / Version 2
    Размер файла : 17,3 Гбайт
    Продолжительность : 1 ч. 34 м.
    Режим общего битрейта : Переменный
    Общий поток : 26,1 Мбит/сек
    Название фильма : Castle Freak
    Дата кодирования : UTC 2015-06-29 07:33:56
    Программа кодирования : mkvmerge v7.3.0 ('Nouages') 32bit built on Oct 22 2014 18:44:01
    Библиотека кодирования : libebml v1.3.0 + libmatroska v1.4.1
    DURATION : 01:29:34.797000000
    NUMBER_OF_FRAMES : 734
    NUMBER_OF_BYTES : 37543
    _STATISTICS_WRITING_APP : mkvmerge v7.3.0 ('Nouages') 32bit built on Oct 22 2014 18:44:01
    _STATISTICS_WRITING_DATE_UTC : 2015-06-29 07:33:56
    _STATISTICS_TAGS : BPS DURATION NUMBER_OF_FRAMES NUMBER_OF_BYTES
    Видео
    Идентификатор : 1
    Формат : AVC
    Формат/Информация : Advanced Video Codec
    Профиль формата : High@L4.1
    Параметр CABAC формата : Да
    Параметр ReFrames формата : 3 кадра
    Параметр GOP формата : M=3, N=12
    Идентификатор кодека : V_MPEG4/ISO/AVC
    Продолжительность : 1 ч. 34 м.
    Вид битрейта : Переменный
    Максимальный битрейт : 35,0 Мбит/сек
    Ширина : 1920 пикселей
    Высота : 1080 пикселей
    Соотношение сторон : 16:9
    Режим частоты кадров : Постоянный
    Частота кадров : 23,976 кадра/сек
    Стандарт вещания : NTSC
    Цветовое пространство : YUV
    Субдискретизация насыщенности : 4:2:0
    Битовая глубина : 8 бит
    Тип развёртки : Прогрессивная
    Заголовок : Castle Freak 1995
    Default : Нет
    Forced : Нет
    Основные цвета : BT.709
    Характеристики трансфера : BT.709
    Коэффициенты матрицы : BT.709
    Аудио #1
    Идентификатор : 2
    Формат : AC-3
    Формат/Информация : Audio Coding 3
    Расширение режима : CM (complete main)
    Параметр Endianness формата : Big
    Идентификатор кодека : A_AC3
    Продолжительность : 1 ч. 34 м.
    Вид битрейта : Постоянный
    Битрейт : 192 Кбит/сек
    Каналы : 2 канала
    Расположение каналов : Front: L R
    Частота : 48,0 КГц
    Битовая глубина : 16 бит
    Метод сжатия : С потерями
    Размер потока : 130 Мбайт (1%)
    Заголовок : Gavrilov AC3 2.0 192 kbps
    Язык : Russian
    Default : Нет
    Forced : Нет
    Аудио #2
    Идентификатор : 3
    Формат : AC-3
    Формат/Информация : Audio Coding 3
    Расширение режима : CM (complete main)
    Параметр Endianness формата : Big
    Идентификатор кодека : A_AC3
    Продолжительность : 1 ч. 34 м.
    Вид битрейта : Постоянный
    Битрейт : 192 Кбит/сек
    Каналы : 2 канала
    Расположение каналов : Front: L R
    Частота : 48,0 КГц
    Битовая глубина : 16 бит
    Метод сжатия : С потерями
    Размер потока : 130 Мбайт (1%)
    Заголовок : Vizgunov AC3 2.0 192 kbps
    Язык : Russian
    Default : Нет
    Forced : Нет
    Аудио #3
    Идентификатор : 4
    Формат : DTS
    Формат/Информация : Digital Theater Systems
    Профиль формата : MA / Core
    Режим : 16
    Параметр Endianness формата : Big
    Идентификатор кодека : A_DTS
    Продолжительность : 1 ч. 34 м.
    Вид битрейта : Переменный
    Битрейт : Неизвестно / 1509 Кбит/сек
    Каналы : 6 каналов
    Расположение каналов : Front: L C R, Side: L R, LFE
    Частота : 48,0 КГц
    Битовая глубина : 16 бит
    Метод сжатия : Без потерь / Lossy
    Заголовок : Original DTS-HD MA 5.1 2065 kbps
    Язык : English
    Default : Нет
    Forced : Нет
    Аудио #4
    Идентификатор : 5
    Формат : FLAC
    Формат/Информация : Free Lossless Audio Codec
    Идентификатор кодека : A_FLAC
    Продолжительность : 1 ч. 34 м.
    Вид битрейта : Переменный
    Каналы : 2 канала
    Частота : 48,0 КГц
    Битовая глубина : 16 бит
    Заголовок : Original FLAC 2.0 ~643 kbps
    Библиотека кодирования : libFLAC 1.2.1 (UTC 2007-09-17)
    Язык : English
    Default : Нет
    Forced : Нет
    Текст
    Идентификатор : 6
    Формат : UTF-8
    Идентификатор кодека : S_TEXT/UTF8
    Идентификатор кодека/Информация : UTF-8 Plain Text
    Язык : Russian
    Default : Нет
    Forced : Нет
    Меню
    00:00:00.000 : en:00:00:00.000
    00:05:03.970 : en:00:05:03.970
    00:07:12.974 : en:00:07:12.974
    00:10:20.995 : en:00:10:20.995
    00:13:50.038 : en:00:13:50.038
    00:18:18.931 : en:00:18:18.931
    00:20:45.035 : en:00:20:45.035
    00:26:54.988 : en:00:26:54.988
    00:30:32.998 : en:00:30:32.998
    00:36:07.957 : en:00:36:07.957
    00:41:52.009 : en:00:41:52.009
    00:47:30.931 : en:00:47:30.931
    00:50:25.981 : en:00:50:25.981
    00:54:53.999 : en:00:54:53.999
    00:57:53.970 : en:00:57:53.970
    01:00:53.024 : en:01:00:53.024
    01:04:37.957 : en:01:04:37.957
    01:07:01.893 : en:01:07:01.893
    01:11:48.971 : en:01:11:48.971
    01:15:38.951 : en:01:15:38.951
    01:20:49.470 : en:01:20:49.470
    01:24:13.423 : en:01:24:13.423
    01:28:19.878 : en:01:28:19.878
    01:31:12.926 : en:01:31:12.926

    Скриншоты

    Скачать .torrent

    Скачать торрент-файл бесплатно и на максимальной скорости!

    Как скачивать? · Что такое торрент? · Рейтинг и ограничения

    !ВНИМАНИЕ!
    Сайт не распространяет и не хранит электронные версии произведений, а занимается лишь лишь предоставлением доступа к создаваемому пользователями каталогу ссылок на торрент-файлы, которые содержат только списки хеш-сумм, убедительная просьба с жалобами обращаться напрямую к пользователю. Файлы для обмена на трекере предоставлены пользователями сайта, и администрация не несёт ответственности за их содержание. Просьба не заливать файлы, защищенные авторскими правами, а также файлы нелегального содержания!


    _________________
    [Профиль] [ЛС]
    Показать сообщения:    
    Ответить на тему

    Текущее время: Сегодня, в 07:01

    Часовой пояс: GMT + 2



    Вы не можете начинать темы
    Вы не можете отвечать на сообщения
    Вы не можете редактировать свои сообщения
    Вы не можете удалять свои сообщения
    Вы не можете голосовать в опросах
    Вы не можете прикреплять файлы к сообщениям
    Вы не можете скачивать файлы