BitTorrentTracker PerecTracker.org
BitTorrentTracker PerecTracker.org
    
Регистрация  ·  Вход
 
 · 
Забыли пароль?

  • Знамение / Knowing (Алекс Пройас / Alex Proyas) [2009, США, Великобритания, фантастика, триллер, драма, детектив, BDRip] Dub

    Ответить на тему
     
    Автор Сообщение

    rechyn

    Создавать темы 29-Июн-2015 18:34

           

    [Цитировать]

    Знамение / Knowing«Что будет, когда закончатся числа?»-Год выпуска: 2009
    Страна: США, Великобритания / Summit Entertainment
    Жанр: фантастика, триллер, драма, детектив
    Продолжительность: 02:01:29
    Перевод: Профессиональный (полное дублирование)
    Cубтитры: нет-Режиссёр: Алекс Пройас / Alex Proyas-В ролях: Николас Кейдж, Роуз Бирн, Чандлер Кентербери, Лара Робинсон, Бен Мендельсон, Д.Г. Малоуни, Надя Таунсенд, Алан Хопгуд, Эдриэнн Пикеринг, Джошуа Лонг, Даниэль Картер, Алетеа МакГрат, Дэвид Ленни, Тамара Доннеллан, Трэвис Вейт, Гарет Юэнь, Лесли Энн Митчелл, Лиам Хемсворт, Рэймонд Томас, Кэролин Шекспир-Аллен, Джоэнна Хант-Проховник, Джейк Брэдли, Жан-Мишель Тан, Роди Клод, Натаниель Киви, Блэр Венн, Алисса МакКлелланд, Джозеф Клементс, Сьюзэн Миллер, Али Аммоучи-Описание: После вскрытия «временной капсулы», в которую в 1959 группа школьников поместила рисунки со своим видением будущего, в руки к профессору Джону Кестлеру попадает загадочный лист, сверху до низу исписанный цифрами. В поисках расшифровки содержания листа, Кестлер устанавливает загадочную связь между цифрами и крупнейшими мировыми бедствиями, произошедшими на Земле за последние 50 лет. Если верить цифрам, трагедий не избежать и в будущем, только теперь Кестлер знает, когда их ожидать. Но есть ли возможность их предотвратить? И самое главное: что будет, когда цепочка цифр кончится?- -Сэмпл: http://multi-up.com/1025963-Качество: BDRip [исх. BDRemux / 1080p]
    Формат: AVI
    Видео: 720x304 (2.37:1), 23.976 fps, XviD build 73 ~1326 kbps avg, 0.25 bit/pixel
    Аудио: 48 kHz, AC3 Dolby Digital, 3/2 (L,C,R,l,r) + LFE ch, ~384.00 kbps avg

    Media Info

    Format                      : AVI
    Format/Info                 : Audio Video Interleave
    File size                   : 1.46 GiB
    Duration                    : 2h 1mn
    Overall bit rate            : 1 719 Kbps
    Writing application         : VirtualDubMod 1.5.10.3 | www.virtualdub-fr.org || (build 2550/release)
    Writing library             : VirtualDubMod build 2550/release
    Video
    ID                          : 0
    Format                      : MPEG-4 Visual
    Format profile              : Advanced Simple@L5
    Format settings, BVOP       : 1
    Format settings, QPel       : No
    Format settings, GMC        : No warppoints
    Format settings, Matrix     : Custom
    Codec ID                    : XVID
    Codec ID/Hint               : XviD
    Duration                    : 2h 1mn
    Bit rate                    : 1 326 Kbps
    Width                       : 720 pixels
    Height                      : 304 pixels
    Display aspect ratio        : 2.35:1
    Frame rate                  : 23.976 fps
    Color space                 : YUV
    Chroma subsampling          : 4:2:0
    Bit depth                   : 8 bits
    Scan type                   : Progressive
    Compression mode            : Lossy
    Bits/(Pixel*Frame)          : 0.253
    Stream size                 : 1.12 GiB (77%)
    Writing library             : XviD 73
    Audio
    ID                          : 1
    Format                      : AC-3
    Format/Info                 : Audio Coding 3
    Mode extension              : CM (complete main)
    Format settings, Endianness : Big
    Codec ID                    : 2000
    Duration                    : 2h 1mn
    Bit rate mode               : Constant
    Bit rate                    : 384 Kbps
    Channel(s)                  : 6 channels
    Channel positions           : Front: L C R, Side: L R, LFE
    Sampling rate               : 48.0 KHz
    Bit depth                   : 16 bits
    Compression mode            : Lossy
    Stream size                 : 334 MiB (22%)
    Alignment                   : Split accross interleaves
    Interleave, duration        : 42 ms (1.00 video frame)
    Interleave, preload duratio : 500 ms

    Скриншоты

    Скачать .torrent

    Скачать торрент-файл бесплатно и на максимальной скорости!

    Как скачивать? · Что такое торрент? · Рейтинг и ограничения

    !ВНИМАНИЕ!
    Сайт не распространяет и не хранит электронные версии произведений, а занимается лишь лишь предоставлением доступа к создаваемому пользователями каталогу ссылок на торрент-файлы, которые содержат только списки хеш-сумм, убедительная просьба с жалобами обращаться напрямую к пользователю. Файлы для обмена на трекере предоставлены пользователями сайта, и администрация не несёт ответственности за их содержание. Просьба не заливать файлы, защищенные авторскими правами, а также файлы нелегального содержания!


    _________________
    [Профиль] [ЛС]
    Показать сообщения:    
    Ответить на тему

    Текущее время: Сегодня, в 02:35

    Часовой пояс: GMT + 2



    Вы не можете начинать темы
    Вы не можете отвечать на сообщения
    Вы не можете редактировать свои сообщения
    Вы не можете удалять свои сообщения
    Вы не можете голосовать в опросах
    Вы не можете прикреплять файлы к сообщениям
    Вы не можете скачивать файлы