BitTorrentTracker PerecTracker.org
BitTorrentTracker PerecTracker.org
    
Регистрация  ·  Вход
 
 · 
Забыли пароль?

  • Три дня на размышление (2 серии) (Роланд Калныньш) [1980, детектив, DVB]

    Ответить на тему
     
    Автор Сообщение

    Light

    Создавать темы 29-Июн-2015 14:44

           

    [Цитировать]

    Три дня на размышление (2 серии)
    Жанр: детектив
    Год выпуска: 1980
    Продолжительность: 01:04:01 + 01:02:14
    Режиссёр: Роланд Калныньш
    В ролях: Витаутас Томкус, Агрис Розенбах, Харий Спановскис, Нина Старовойтенко, Вера Шнейдере, Алексей Михайлов, Евгений Иванычев, Улдис Думпис, Владимир Жук, Илзе Клявиня, Гирт Яковлев, Арнис Лицитис, Г. Скрастиньш
    Описание: В основе телефильма - подлинные события, связанные с раскрытием преступления латвийскими органами внутренних дел. Ограблен инкассатор, совершено убийство, группа оперативников приступает к расследованию...
    Доп. информация:
    Запись потока *.ts со спутника Ямал 402, 55° в.д., ремукс в *.mpg программой VideoReDo.
    Качество видео: DVB
    Формат видео: MPEG-PS
    Видео: MPEG Video, 720(768)x576 (4:3), 25,000 кадров/сек, 4424 Кбит/сек
    Аудио: MPEG Audio, 48,0 КГц, 160 Кбит/сек, 2 канала

    MediaInfo

    Общее
    Полное имя : D:\Torrent\ТРИ ДНЯ\ТРИ ДНЯ НА РАЗМЫШЛЕНИЕ 2 (РОССИЯ 40).mpg
    Формат : MPEG-PS
    Размер файла : 2,51 Гбайт
    Продолжительность : 1 ч. 4 м.
    Режим общего битрейта : Переменный
    Общий поток : 5624 Кбит/сек
    Видео
    Идентификатор : 224 (0xE0)
    Формат : MPEG Video
    Версия формата : Version 2
    Профиль формата : Main@Main
    Параметр BVOP формата : Да
    Параметр матрицы формата : Выборочная
    Параметр GOP формата : M=3, N=15
    Продолжительность : 1 ч. 4 м.
    Вид битрейта : Переменный
    Битрейт : 5256 Кбит/сек
    Максимальный битрейт : 15,0 Мбит/сек
    Ширина : 720 пикселей
    Высота : 576 пикселей
    Соотношение сторон : 4:3
    Частота кадров : 25,000 кадров/сек
    Стандарт вещания : PAL
    Цветовое пространство : YUV
    Субдискретизация насыщенности : 4:2:0
    Битовая глубина : 8 бит
    Тип развёртки : Чересстрочная
    Порядок развёртки : Верхнее поле первое
    Метод сжатия : С потерями
    Бит/(Пиксели*Кадры) : 0.507
    Временной код первого кадра : 00:00:00:00
    Оригинал временного кода : Group of pictures header
    Размер потока : 2,35 Гбайт (93%)
    Аудио
    Идентификатор : 192 (0xC0)
    Формат : MPEG Audio
    Версия формата : Version 1
    Профиль формата : Layer 2
    Продолжительность : 1 ч. 4 м.
    Вид битрейта : Постоянный
    Битрейт : 256 Кбит/сек
    Каналы : 2 канала
    Частота : 48,0 КГц
    Метод сжатия : С потерями
    Задержка видео : 19 мс.
    Размер потока : 117 Мбайт (5%)
    Общее
    Полное имя : D:\Torrent\ТРИ ДНЯ\ТРИ ДНЯ НА РАЗМЫШЛЕНИЕ 1 (РОССИЯ 40).mpg
    Формат : MPEG-PS
    Размер файла : 2,45 Гбайт
    Продолжительность : 1 ч. 2 м.
    Режим общего битрейта : Переменный
    Общий поток : 5624 Кбит/сек
    Видео
    Идентификатор : 224 (0xE0)
    Формат : MPEG Video
    Версия формата : Version 2
    Профиль формата : Main@Main
    Параметр BVOP формата : Да
    Параметр матрицы формата : Выборочная
    Параметр GOP формата : M=3, N=15
    Продолжительность : 1 ч. 2 м.
    Вид битрейта : Переменный
    Битрейт : 5256 Кбит/сек
    Максимальный битрейт : 15,0 Мбит/сек
    Ширина : 720 пикселей
    Высота : 576 пикселей
    Соотношение сторон : 4:3
    Частота кадров : 25,000 кадров/сек
    Стандарт вещания : PAL
    Цветовое пространство : YUV
    Субдискретизация насыщенности : 4:2:0
    Битовая глубина : 8 бит
    Тип развёртки : Чересстрочная
    Порядок развёртки : Верхнее поле первое
    Метод сжатия : С потерями
    Бит/(Пиксели*Кадры) : 0.507
    Временной код первого кадра : 00:00:00:00
    Оригинал временного кода : Group of pictures header
    Размер потока : 2,29 Гбайт (93%)
    Аудио
    Идентификатор : 192 (0xC0)
    Формат : MPEG Audio
    Версия формата : Version 1
    Профиль формата : Layer 2
    Продолжительность : 1 ч. 2 м.
    Вид битрейта : Постоянный
    Битрейт : 256 Кбит/сек
    Каналы : 2 канала
    Частота : 48,0 КГц
    Метод сжатия : С потерями
    Задержка видео : 3 мс.
    Размер потока : 114 Мбайт (5%)

    Скриншоты

    Скачать .torrent

    Скачать торрент-файл бесплатно и на максимальной скорости!

    Как скачивать? · Что такое торрент? · Рейтинг и ограничения

    !ВНИМАНИЕ!
    Сайт не распространяет и не хранит электронные версии произведений, а занимается лишь лишь предоставлением доступа к создаваемому пользователями каталогу ссылок на торрент-файлы, которые содержат только списки хеш-сумм, убедительная просьба с жалобами обращаться напрямую к пользователю. Файлы для обмена на трекере предоставлены пользователями сайта, и администрация не несёт ответственности за их содержание. Просьба не заливать файлы, защищенные авторскими правами, а также файлы нелегального содержания!


    _________________
    [Профиль] [ЛС]
    Показать сообщения:    
    Ответить на тему

    Текущее время: Сегодня, в 04:13

    Часовой пояс: GMT + 2



    Вы не можете начинать темы
    Вы не можете отвечать на сообщения
    Вы не можете редактировать свои сообщения
    Вы не можете удалять свои сообщения
    Вы не можете голосовать в опросах
    Вы не можете прикреплять файлы к сообщениям
    Вы не можете скачивать файлы