BitTorrentTracker PerecTracker.org
BitTorrentTracker PerecTracker.org
    
Регистрация  ·  Вход
 
 · 
Забыли пароль?

  • Ланестер / Lanester (Франк Манкузо / Franck Mancuso) [2013, Франция, детектив, триллер, экранизация, HDTVRip] MVO

    Ответить на тему
     
    Автор Сообщение

    Light

    Создавать темы 29-Июн-2015 14:44

           

    [Цитировать]

    Ланестер / Lanester
    Страна: Франция
    Жанр: детектив, триллер, экранизация
    Год выпуска: 2013
    Продолжительность: 01:37:27
    Перевод: Профессиональный (многоголосый закадровый)
    Cубтитры: нет
    Режиссер: Франк Манкузо / Franck Mancuso
    В ролях: Ришар Берри / Richard Berry (Eric Lanester), Эмма де Кон / Emma de Caunes (Gabrielle Stahl), Ипполит Жирардо / Hippolyte Girardot (Professeur Vincent Gerhardt), Брюно Саломон / Bruno Salomone (Xavier Lanester), Ники Марбо / Nicky Marbot (Charles Kaminski), Изабель Канделье / Isabelle Candelier (Dr. Jacynthe Bergeret)
    Описание: По книге Франсуазы Герен / Françoise Guérin "À la vue, à la mort" (2007), получившей престижные литературные премии: за лучший полицейский роман Festival du film policier de Cognac 2007 и студенческую премию Академии Клермон-Ферран памяти Jean Zay 2008. Композитор Кришна Леви / Krishna Levy.
    В западном Париже совершены три убийства по загадочному сценарию, когда каждая из жертв была подвергнута энуклеации. Ведущий эти дела капитан полиции Эрик Ланестер теряет зрение, тем не менее, продолжает расследование, способное воскресить демонов, которые, как он считал, были давным-давно похоронены…
    Доп. информация: За запись исходника спасибо Romanok8691
    Релиз
    Сэмпл: https://yadi.sk/i/aK9wvacNhY9uC
    Качество видео: HDTVRip
    Формат видео: AVI
    Видео: 720x400 (1.80:1), 25 fps, XviD build 50 ~1807 kbps avg, 0.25 bit/pixel
    Аудио: 48 kHz, AC3 Dolby Digital, 2/0 (L,R) ch, ~192 kbps
    Аудио 2: 48 kHz, AC3 Dolby Digital, 2/0 (L,R) ch, ~192 kbps

    MediaInfo

    Ланестер - Lanester [by Edich2].avi
    Format : AVI
    Format/Info : Audio Video Interleave
    File size : 1.37 GiB
    Duration : 1h 37mn
    Overall bit rate : 2 009 Kbps
    Movie name : Ланестер - Lanester [by Edich2]
    Director : by Edich2
    Writing application : VirtualDubMod 1.5.10.3 | www.virtualdub-fr.org || (build 2550/release)
    Comment : RuTracker.org
    Video
    ID : 0
    Format : MPEG-4 Visual
    Format profile : Advanced Simple@L5
    Format settings, BVOP : 1
    Format settings, QPel : No
    Format settings, GMC : No warppoints
    Format settings, Matrix : Default (MPEG)
    Codec ID : XVID
    Codec ID/Hint : XviD
    Duration : 1h 37mn
    Bit rate : 1 808 Kbps
    Width : 720 pixels
    Height : 400 pixels
    Display aspect ratio : 16:9
    Frame rate : 25.000 fps
    Color space : YUV
    Chroma subsampling : 4:2:0
    Bit depth : 8 bits
    Scan type : Progressive
    Compression mode : Lossy
    Bits/(Pixel*Frame) : 0.251
    Stream size : 1.23 GiB (90%)
    Writing library : XviD 1.2.1 (UTC 2008-12-04)
    Audio
    ID : 1
    Format : AC-3
    Format/Info : Audio Coding 3
    Mode extension : CM (complete main)
    Format settings, Endianness : Big
    Codec ID : 2000
    Duration : 1h 37mn
    Bit rate mode : Constant
    Bit rate : 192 Kbps
    Channel(s) : 2 channels
    Channel positions : Front: L R
    Sampling rate : 48.0 KHz
    Bit depth : 16 bits
    Compression mode : Lossy
    Stream size : 134 MiB (10%)
    Alignment : Split accross interleaves
    Interleave, duration : 40 ms (1.00 video frame)
    Interleave, preload duration : 500 ms

    Скриншоты


    Скачать .torrent

    Скачать торрент-файл бесплатно и на максимальной скорости!

    Как скачивать? · Что такое торрент? · Рейтинг и ограничения

    !ВНИМАНИЕ!
    Сайт не распространяет и не хранит электронные версии произведений, а занимается лишь лишь предоставлением доступа к создаваемому пользователями каталогу ссылок на торрент-файлы, которые содержат только списки хеш-сумм, убедительная просьба с жалобами обращаться напрямую к пользователю. Файлы для обмена на трекере предоставлены пользователями сайта, и администрация не несёт ответственности за их содержание. Просьба не заливать файлы, защищенные авторскими правами, а также файлы нелегального содержания!


    _________________
    [Профиль] [ЛС]
    Показать сообщения:    
    Ответить на тему

    Текущее время: Сегодня, в 10:03

    Часовой пояс: GMT + 2



    Вы не можете начинать темы
    Вы не можете отвечать на сообщения
    Вы не можете редактировать свои сообщения
    Вы не можете удалять свои сообщения
    Вы не можете голосовать в опросах
    Вы не можете прикреплять файлы к сообщениям
    Вы не можете скачивать файлы